<?xml version="1.0" standalone="no"?>
<!DOCTYPE svg PUBLIC "-//W3C//DTD SVG 1.1//EN" "http://www.w3.org/Graphics/SVG/1.1/DTD/svg11.dtd" >
<svg xmlns="http://www.w3.org/2000/svg">
<metadata>Generated by IcoMoon</metadata>
<defs>
<font id="icomoon" horiz-adv-x="1024">
<font-face units-per-em="1024" ascent="960" descent="-64" />
<missing-glyph horiz-adv-x="1024" />
<glyph unicode="&#x20;" horiz-adv-x="512" d="" />
<glyph unicode="&#xe900;" glyph-name="circle" d="M64 448c0-247.424 200.576-448 448-448s448 200.576 448 448v0c0 247.424-200.576 448-448 448s-448-200.576-448-448v0zM1024 448c0-282.77-229.23-512-512-512s-512 229.23-512 512v0c0 282.77 229.23 512 512 512s512-229.23 512-512v0zM594.112 703.872v-511.872h-83.968v426.368h-4.16l-117.376-84.352v81.344l121.536 88.512h83.968z" />
<glyph unicode="&#xe901;" glyph-name="circle-fill" d="M1024 448v0c0 282.77-229.23 512-512 512s-512-229.23-512-512v0c0-282.77 229.23-512 512-512s512 229.23 512 512zM594.112 703.872v-511.872h-83.968v426.368h-4.16l-117.376-84.352v81.344l121.536 88.512h83.968z" />
<glyph unicode="&#xe902;" glyph-name="square" d="M594.112 703.872v-511.872h-83.968v426.368h-4.16l-117.376-84.352v81.344l121.536 88.512h83.968zM0 832c0 70.692 57.308 128 128 128v0h768c70.692 0 128-57.308 128-128v0-768c0-70.692-57.308-128-128-128v0h-768c-70.692 0-128 57.308-128 128v0 768zM960 832c0 35.346-28.654 64-64 64v0h-768c-35.346 0-64-28.654-64-64v0-768c0-35.346 28.654-64 64-64v0h768c35.346 0 64 28.654 64 64v0 768z" />
<glyph unicode="&#xe903;" glyph-name="square-fill" d="M128 960c-70.692 0-128-57.308-128-128v0-768c0-70.692 57.308-128 128-128v0h768c70.692 0 128 57.308 128 128v0 768c0 70.692-57.308 128-128 128v0h-768zM594.112 703.872v-511.872h-83.968v426.368h-4.16l-117.376-84.352v81.344l121.536 88.512h83.968z" />
<glyph unicode="&#xe904;" glyph-name="circle1" d="M64 448c0-247.424 200.576-448 448-448s448 200.576 448 448v0c0 247.424-200.576 448-448 448s-448-200.576-448-448v0zM1024 448c0-282.77-229.23-512-512-512s-512 229.23-512 512v0c0 282.77 229.23 512 512 512s512-229.23 512-512v0zM425.344 560.64v-4.48h-81.344v4.096c0 77.632 56.256 153.728 168.768 153.728 101.248 0 167.232-60.736 167.232-141.76 0-64.128-38.4-106.688-82.368-155.52l-6.144-6.848-126.336-142.080v-4.928h223.872v-70.848h-342.016v53.248l190.080 210.752c27.776 30.4 57.792 64.512 57.792 109.12 0 47.616-35.648 79.104-84.032 79.104-53.952 0-85.504-39.36-85.504-83.584z" />
<glyph unicode="&#xe905;" glyph-name="circle-fill1" d="M1024 448c0-282.77-229.23-512-512-512s-512 229.23-512 512v0c0 282.77 229.23 512 512 512s512-229.23 512-512v0zM425.344 560.64c0 44.224 31.552 83.584 85.504 83.584 48.384 0 84.032-31.488 84.032-79.104 0-44.608-30.016-78.72-57.728-109.12l-190.144-210.752v-53.248h342.016v70.848h-223.872v4.928l132.48 148.928c44.032 48.832 82.368 91.392 82.368 155.52 0 81.024-65.984 141.76-167.232 141.76-112.512 0-168.768-76.16-168.768-153.728v-4.16h81.344v4.48z" />
<glyph unicode="&#xe906;" glyph-name="square1" d="M425.344 560.64v-4.48h-81.344v4.096c0 77.632 56.256 153.728 168.768 153.728 101.248 0 167.232-60.736 167.232-141.76 0-64.128-38.4-106.688-82.368-155.52l-6.144-6.848-126.336-142.080v-4.928h223.872v-70.848h-342.016v53.248l190.080 210.752c27.776 30.4 57.792 64.512 57.792 109.12 0 47.616-35.648 79.104-84.032 79.104-53.952 0-85.504-39.36-85.504-83.584zM0 832c0 70.692 57.308 128 128 128v0h768c70.692 0 128-57.308 128-128v0-768c0-70.692-57.308-128-128-128v0h-768c-70.692 0-128 57.308-128 128v0 768zM960 832c0 35.346-28.654 64-64 64v0h-768c-35.346 0-64-28.654-64-64v0-768c0-35.346 28.654-64 64-64v0h768c35.346 0 64 28.654 64 64v0 768z" />
<glyph unicode="&#xe907;" glyph-name="square-fill1" d="M128 960c-70.692 0-128-57.308-128-128v0-768c0-70.692 57.308-128 128-128v0h768c70.692 0 128 57.308 128 128v0 768c0 70.692-57.308 128-128 128v0h-768zM425.344 560.64v-4.48h-81.344v4.096c0 77.632 56.256 153.728 168.768 153.728 101.248 0 167.232-60.736 167.232-141.76 0-64.128-38.4-106.688-82.368-155.52l-6.144-6.848-126.336-142.080v-4.928h223.872v-70.848h-342.016v53.248l190.080 210.752c27.776 30.4 57.792 64.512 57.792 109.12 0 47.616-35.648 79.104-84.032 79.104-53.952 0-85.504-39.36-85.504-83.584z" />
<glyph unicode="&#xe908;" glyph-name="circle2" d="M506.752 421.504h-56.256v68.608h53.632c49.92 0 86.272 33.408 85.888 79.168 0 45.376-36.032 76.48-86.272 76.48-50.56 0-83.968-31.872-86.272-67.52h-79.872c2.304 72.768 60.8 135.36 168 135.744 102.016 0.768 166.912-56.64 168.768-131.968 1.472-72.768-56.64-113.664-94.848-120v-4.48c44.992-4.48 109.44-40.96 110.976-122.688 1.536-93.376-81.728-153.344-187.52-153.344-109.12 0-173.248 61.888-176.256 137.216h78.4c3.776-38.208 43.52-67.84 98.624-68.224 62.272-0.384 102.4 36.032 101.632 86.656-0.384 49.856-39.744 84.352-98.624 84.352zM1024 448c0-282.77-229.23-512-512-512s-512 229.23-512 512v0c0 282.77 229.23 512 512 512s512-229.23 512-512v0zM64 448c0-247.424 200.576-448 448-448s448 200.576 448 448v0c0 247.424-200.576 448-448 448s-448-200.576-448-448v0z" />
<glyph unicode="&#xe909;" glyph-name="circle-fill2" d="M1024 448c0-282.77-229.23-512-512-512s-512 229.23-512 512v0c0 282.77 229.23 512 512 512s512-229.23 512-512v0zM506.752 421.504c58.88 0 98.24-34.56 98.624-84.352 0.768-50.624-39.36-87.040-101.632-86.656-55.104 0.384-94.848 30.016-98.56 68.224h-78.528c3.008-75.328 67.2-137.216 176.256-137.216 105.792 0 189.056 59.968 187.52 153.344-1.472 81.792-65.984 118.144-110.976 122.624v4.48c38.208 6.4 96.32 47.296 94.848 120.064-1.92 75.328-66.752 132.736-168.768 131.968-107.2-0.384-165.76-62.976-168-135.68h79.872c2.304 35.584 35.648 67.456 86.272 67.456 50.24 0 86.272-31.104 86.272-76.48 0.384-45.76-36.032-79.168-85.888-79.168h-53.632v-68.608h56.256z" />
<glyph unicode="&#xe90a;" glyph-name="square2" d="M506.752 421.504h-56.256v68.608h53.632c49.92 0 86.272 33.408 85.888 79.168 0 45.376-36.032 76.48-86.272 76.48-50.56 0-83.968-31.872-86.272-67.52h-79.872c2.304 72.768 60.8 135.36 168 135.744 102.016 0.768 166.912-56.64 168.768-131.968 1.472-72.768-56.64-113.664-94.848-120v-4.48c44.992-4.48 109.44-40.96 110.976-122.688 1.536-93.376-81.728-153.344-187.52-153.344-109.12 0-173.248 61.888-176.256 137.216h78.4c3.776-38.208 43.52-67.84 98.624-68.224 62.272-0.384 102.4 36.032 101.632 86.656-0.384 49.856-39.744 84.352-98.624 84.352zM0 832c0 70.692 57.308 128 128 128v0h768c70.692 0 128-57.308 128-128v0-768c0-70.692-57.308-128-128-128v0h-768c-70.692 0-128 57.308-128 128v0 768zM960 832c0 35.346-28.654 64-64 64v0h-768c-35.346 0-64-28.654-64-64v0-768c0-35.346 28.654-64 64-64v0h768c35.346 0 64 28.654 64 64v0 768z" />
<glyph unicode="&#xe90b;" glyph-name="square-fill2" d="M128 960c-70.692 0-128-57.308-128-128v0-768c0-70.692 57.308-128 128-128v0h768c70.692 0 128 57.308 128 128v0 768c0 70.692-57.308 128-128 128v0h-768zM506.752 421.504h-56.256v68.608h53.632c49.92 0 86.272 33.408 85.888 79.168 0 45.376-36.032 76.48-86.272 76.48-50.56 0-83.968-31.872-86.272-67.52h-79.872c2.304 72.768 60.8 135.36 168 135.744 102.016 0.768 166.912-56.64 168.768-131.968 1.472-72.768-56.64-113.664-94.848-120v-4.48c44.992-4.48 109.44-40.96 110.976-122.688 1.536-93.376-81.728-153.344-187.52-153.344-109.12 0-173.248 61.888-176.256 137.216h78.4c3.776-38.208 43.52-67.84 98.624-68.224 62.272-0.384 102.4 36.032 101.632 86.656-0.384 49.856-39.744 84.352-98.624 84.352z" />
<glyph unicode="&#xe90c;" glyph-name="circle3" d="M481.216 636.352c14.080 22.528 28.096 44.992 42.048 67.52h123.712v-341.248h64.512v-70.848h-64.448v-99.776h-80.64v99.776h-247.808v71.616c49.28 91.328 105.984 182.208 162.688 272.96zM398.4 366.016v-3.392h168v273.344h-4.16c-55.488-85.12-114.368-179.584-163.84-269.952zM1024 448c0-282.77-229.23-512-512-512s-512 229.23-512 512v0c0 282.77 229.23 512 512 512s512-229.23 512-512v0zM64 448c0-247.424 200.576-448 448-448s448 200.576 448 448v0c0 247.424-200.576 448-448 448s-448-200.576-448-448v0z" />
<glyph unicode="&#xe90d;" glyph-name="circle-fill3" d="M1024 448c0-282.77-229.23-512-512-512s-512 229.23-512 512v0c0 282.77 229.23 512 512 512s512-229.23 512-512v0zM481.216 636.352c-56.704-90.752-113.408-181.632-162.688-272.96v-71.68h247.872v-99.712h80.64v99.776h64.448v70.848h-64.448v341.248h-123.776c-13.952-22.528-28.032-44.992-42.048-67.52zM398.4 366.016v-3.392h168v273.344h-4.16c-55.488-85.12-114.368-179.584-163.84-269.952z" />
<glyph unicode="&#xe90e;" glyph-name="square3" d="M481.216 636.352c14.080 22.528 28.096 44.992 42.048 67.52h123.712v-341.248h64.512v-70.848h-64.448v-99.776h-80.64v99.776h-247.808v71.616c49.28 91.328 105.984 182.208 162.688 272.96zM398.4 366.016v-3.392h168v273.344h-4.16c-55.488-85.12-114.368-179.584-163.84-269.952zM0 832c0 70.692 57.308 128 128 128v0h768c70.692 0 128-57.308 128-128v0-768c0-70.692-57.308-128-128-128v0h-768c-70.692 0-128 57.308-128 128v0 768zM960 832c0 35.346-28.654 64-64 64v0h-768c-35.346 0-64-28.654-64-64v0-768c0-35.346 28.654-64 64-64v0h768c35.346 0 64 28.654 64 64v0 768z" />
<glyph unicode="&#xe90f;" glyph-name="square-fill3" d="M398.4 366.016v-3.392h168v273.344h-4.16c-55.488-85.12-114.368-179.584-163.84-269.952zM128 960c-70.692 0-128-57.308-128-128v0-768c0-70.692 57.308-128 128-128v0h768c70.692 0 128 57.308 128 128v0 768c0 70.692-57.308 128-128 128v0h-768zM481.216 636.352c14.080 22.528 28.096 44.992 42.048 67.52h123.712v-341.248h64.512v-70.848h-64.448v-99.776h-80.64v99.776h-247.808v71.616c49.28 91.328 105.984 182.208 162.688 272.96z" />
<glyph unicode="&#xe910;" glyph-name="circle4" d="M64 448c0 247.424 200.576 448 448 448s448-200.576 448-448v0c0-247.424-200.576-448-448-448s-448 200.576-448 448v0zM1024 448c0 282.77-229.23 512-512 512s-512-229.23-512-512v0c0-282.77 229.23-512 512-512s512 229.23 512 512v0zM511.616 181.888c-100.48 0-169.856 57.728-174.016 135.36h79.168c8.96-46.080 53.248-65.984 97.856-65.984 50.624 0 100.48 38.208 100.48 107.584 0 61.888-46.848 100.48-101.248 100.48-49.088 0-79.488-28.8-91.84-51.712h-73.536l22.144 296.384h301.12v-70.592h-231.744l-12.352-149.952h4.096c10.88 16.512 45.76 43.52 103.104 43.52 88.512 0 163.904-60.416 163.904-165.44 0-107.968-75.776-179.584-187.136-179.584z" />
<glyph unicode="&#xe911;" glyph-name="circle-fill4" d="M1024 448c0-282.77-229.23-512-512-512s-512 229.23-512 512v0c0 282.77 229.23 512 512 512s512-229.23 512-512v0zM511.616 181.888c111.36 0 187.136 71.616 187.136 179.584 0 105.024-75.392 165.376-163.84 165.376-57.408 0-92.288-26.944-103.168-43.52h-4.096l12.352 150.016h231.744v70.528h-301.12l-22.144-296.192h73.536c12.352 22.912 42.752 51.776 91.84 51.776 54.4 0 101.248-38.656 101.248-100.48 0-69.44-49.856-107.648-100.48-107.648-44.608 0-88.896 19.84-97.92 65.984h-79.040c4.16-77.632 73.536-135.36 174.080-135.36z" />
<glyph unicode="&#xe912;" glyph-name="square4" d="M511.616 181.888c-100.48 0-169.856 57.728-174.016 135.36h79.168c8.96-46.080 53.248-65.984 97.856-65.984 50.624 0 100.48 38.208 100.48 107.584 0 61.888-46.848 100.48-101.248 100.48-49.088 0-79.488-28.8-91.84-51.712h-73.536l22.144 296.384h301.12v-70.592h-231.744l-12.352-149.952h4.096c10.88 16.512 45.76 43.52 103.104 43.52 88.512 0 163.904-60.416 163.904-165.44 0-107.968-75.776-179.584-187.136-179.584zM0 832c0 70.692 57.308 128 128 128v0h768c70.692 0 128-57.308 128-128v0-768c0-70.692-57.308-128-128-128v0h-768c-70.692 0-128 57.308-128 128v0 768zM960 832c0 35.346-28.654 64-64 64v0h-768c-35.346 0-64-28.654-64-64v0-768c0-35.346 28.654-64 64-64v0h768c35.346 0 64 28.654 64 64v0 768z" />
<glyph unicode="&#xe913;" glyph-name="square-fill4" d="M128 960c-70.692 0-128-57.308-128-128v0-768c0-70.692 57.308-128 128-128v0h768c70.692 0 128 57.308 128 128v0 768c0 70.692-57.308 128-128 128v0h-768zM511.616 181.888c-100.48 0-169.856 57.728-174.016 135.36h79.168c8.96-46.080 53.248-65.984 97.856-65.984 50.624 0 100.48 38.208 100.48 107.584 0 61.888-46.848 100.48-101.248 100.48-49.088 0-79.488-28.8-91.84-51.712h-73.536l22.144 296.384h301.12v-70.592h-231.744l-12.352-149.952h4.096c10.88 16.512 45.76 43.52 103.104 43.52 88.512 0 163.904-60.416 163.904-165.44 0-107.968-75.776-179.584-187.136-179.584z" />
<glyph unicode="&#xe914;" glyph-name="circle5" d="M64 448c0-247.424 200.576-448 448-448s448 200.576 448 448v0c0 247.424-200.576 448-448 448s-448-200.576-448-448v0zM1024 448c0-282.77-229.23-512-512-512s-512 229.23-512 512v0c0 282.77 229.23 512 512 512s512-229.23 512-512v0zM525.44 713.28c103.168 0 160.96-63.36 164.672-121.536h-82.496c-6.4 22.912-32.64 52.16-83.968 52.16-68.992 0-116.288-69.76-115.52-194.304h5.248c14.656 34.88 54.72 73.92 126.72 73.92 80.256 0 160.512-56.32 160.512-163.52 0-113.28-77.952-178.112-182.208-178.112-59.648 0-117.76 20.992-154.176 80.256-23.616 38.592-38.208 93.376-38.208 169.088 0 192.768 79.872 282.048 199.488 282.048zM519.104 456.768c-58.88 0-100.096-41.6-100.096-100.864 0-66.048 44.992-104.64 99.712-104.64 55.552 0 99.392 34.112 99.392 104.256 0 67.84-47.616 101.248-99.008 101.248z" />
<glyph unicode="&#xe915;" glyph-name="circle-fill5" d="M1024 448c0-282.77-229.23-512-512-512s-512 229.23-512 512v0c0 282.77 229.23 512 512 512s512-229.23 512-512v0zM525.44 713.28c-119.552 0-199.424-89.28-199.424-282.048 0-75.712 14.592-130.496 38.208-169.088 36.416-59.264 94.528-80.256 154.176-80.256 104.256 0 182.208 64.832 182.208 178.112 0 107.264-80.256 163.52-160.512 163.52-72 0-112.128-39.040-126.72-73.92h-5.248c-0.768 124.544 46.528 194.304 115.52 194.304 51.328 0 77.632-29.248 83.968-52.16h82.56c-3.84 58.112-61.568 121.536-164.672 121.536zM519.104 456.768c-58.88 0-100.096-41.6-100.096-100.864 0-66.048 44.992-104.64 99.712-104.64 55.552 0 99.392 34.112 99.392 104.256 0 67.84-47.616 101.248-99.008 101.248z" />
<glyph unicode="&#xe916;" glyph-name="square5" d="M525.44 713.28c103.168 0 160.96-63.36 164.672-121.536h-82.496c-6.4 22.912-32.64 52.16-83.968 52.16-68.992 0-116.288-69.76-115.52-194.304h5.248c14.656 34.88 54.72 73.92 126.72 73.92 80.256 0 160.512-56.32 160.512-163.52 0-113.28-77.952-178.112-182.208-178.112-59.648 0-117.76 20.992-154.176 80.256-23.616 38.592-38.208 93.376-38.208 169.088 0 192.768 79.872 282.048 199.488 282.048zM519.104 456.768c-58.88 0-100.096-41.6-100.096-100.864 0-66.048 44.992-104.64 99.712-104.64 55.552 0 99.392 34.112 99.392 104.256 0 67.84-47.616 101.248-99.008 101.248zM0 832c0 70.692 57.308 128 128 128v0h768c70.692 0 128-57.308 128-128v0-768c0-70.692-57.308-128-128-128v0h-768c-70.692 0-128 57.308-128 128v0 768zM960 832c0 35.346-28.654 64-64 64v0h-768c-35.346 0-64-28.654-64-64v0-768c0-35.346 28.654-64 64-64v0h768c35.346 0 64 28.654 64 64v0 768z" />
<glyph unicode="&#xe917;" glyph-name="square-fill5" d="M519.104 456.768c-58.88 0-100.096-41.6-100.096-100.864 0-66.048 44.992-104.64 99.712-104.64 55.552 0 99.392 34.112 99.392 104.256 0 67.84-47.616 101.248-99.008 101.248zM128 960c-70.692 0-128-57.308-128-128v0-768c0-70.692 57.308-128 128-128v0h768c70.692 0 128 57.308 128 128v0 768c0 70.692-57.308 128-128 128v0h-768zM525.44 713.28c103.168 0 160.96-63.36 164.672-121.536h-82.496c-6.4 22.912-32.64 52.16-83.968 52.16-68.992 0-116.288-69.76-115.52-194.304h5.248c14.656 34.88 54.72 73.92 126.72 73.92 80.256 0 160.512-56.32 160.512-163.52 0-113.28-77.952-178.112-182.208-178.112-59.648 0-117.76 20.992-154.176 80.256-23.616 38.592-38.208 93.376-38.208 169.088 0 192.768 79.872 282.048 199.488 282.048z" />
<glyph unicode="&#xe918;" glyph-name="circle6" d="M64 448c0-247.424 200.576-448 448-448s448 200.576 448 448v0c0 247.424-200.576 448-448 448s-448-200.576-448-448v0zM1024 448c0-282.77-229.23-512-512-512s-512 229.23-512 512v0c0 282.77 229.23 512 512 512s512-229.23 512-512v0zM343.68 632.96v70.976h339.712v-73.536l-208.512-438.4h-89.28l212.288 436.48v4.48h-254.272z" />
<glyph unicode="&#xe919;" glyph-name="circle-fill6" d="M1024 448c0-282.77-229.23-512-512-512s-512 229.23-512 512v0c0 282.77 229.23 512 512 512s512-229.23 512-512v0zM343.68 632.96h254.208v-4.48l-212.288-436.48h89.28l208.512 438.4v73.472h-339.776v-70.848z" />
<glyph unicode="&#xe91a;" glyph-name="square6" d="M343.68 632.96v70.976h339.712v-73.536l-208.512-438.4h-89.28l212.288 436.48v4.48h-254.272zM0 832c0 70.692 57.308 128 128 128v0h768c70.692 0 128-57.308 128-128v0-768c0-70.692-57.308-128-128-128v0h-768c-70.692 0-128 57.308-128 128v0 768zM960 832c0 35.346-28.654 64-64 64v0h-768c-35.346 0-64-28.654-64-64v0-768c0-35.346 28.654-64 64-64v0h768c35.346 0 64 28.654 64 64v0 768z" />
<glyph unicode="&#xe91b;" glyph-name="square-fill6" d="M128 960c-70.692 0-128-57.308-128-128v0-768c0-70.692 57.308-128 128-128v0h768c70.692 0 128 57.308 128 128v0 768c0 70.692-57.308 128-128 128v0h-768zM343.68 632.96v70.976h339.712v-73.536l-208.512-438.4h-89.28l212.288 436.48v4.48h-254.272z" />
<glyph unicode="&#xe91c;" glyph-name="circle7" d="M64 448c0-247.424 200.576-448 448-448s448 200.576 448 448v0c0 247.424-200.576 448-448 448s-448-200.576-448-448v0zM1024 448c0-282.77-229.23-512-512-512s-512 229.23-512 512v0c0 282.77 229.23 512 512 512s512-229.23 512-512v0zM702.080 332.608c0-89.216-77.952-150.72-191.232-150.72-112.832 0-188.992 61.12-188.992 150.016 0 81.344 60.8 118.464 105.408 128.192v4.16c-39.744 12.352-85.12 47.232-85.12 113.984 0 78.4 69.76 135.744 170.24 135.744s169.856-57.344 169.856-135.68c0-67.904-47.232-102.080-85.504-114.048v-4.16c44.992-9.728 105.408-47.616 105.408-127.488zM423.872 570.048c0-47.296 37.504-80.32 88.512-80.32s88.128 33.024 88.128 80.256c0 46.912-37.12 78.72-88.128 78.72s-88.512-31.808-88.512-78.72zM405.888 336.768c0-53.632 46.080-90.368 106.496-90.368 60.352 0 106.112 36.736 106.112 90.368 0 53.952-45.76 91.136-106.112 91.136-60.416 0-106.496-37.12-106.496-91.136z" />
<glyph unicode="&#xe91d;" glyph-name="circle-fill7" d="M1024 448c0-282.77-229.23-512-512-512s-512 229.23-512 512v0c0 282.77 229.23 512 512 512s512-229.23 512-512v0zM702.080 332.608c0 79.872-60.352 117.76-105.344 127.488v4.16c38.272 11.968 85.504 46.080 85.504 113.984 0 78.4-69.376 135.744-169.856 135.744s-170.24-57.344-170.24-135.68c0-66.816 45.376-101.696 85.12-114.048v-4.16c-44.608-9.728-105.408-46.848-105.408-128.192 0-88.96 76.16-150.016 188.992-150.016 113.28 0 191.296 61.44 191.296 150.72zM423.872 570.048c0-47.296 37.504-80.32 88.512-80.32s88.128 33.024 88.128 80.256c0 46.912-37.12 78.72-88.128 78.72s-88.512-31.808-88.512-78.72zM405.888 336.768c0-53.632 46.080-90.368 106.496-90.368 60.352 0 106.112 36.736 106.112 90.368 0 53.952-45.76 91.136-106.112 91.136-60.416 0-106.496-37.12-106.496-91.136z" />
<glyph unicode="&#xe91e;" glyph-name="square7" d="M702.080 332.608c0-89.216-77.952-150.72-191.232-150.72-112.832 0-188.992 61.12-188.992 150.016 0 81.344 60.8 118.464 105.408 128.192v4.16c-39.744 12.352-85.12 47.232-85.12 113.984 0 78.4 69.76 135.744 170.24 135.744s169.856-57.344 169.856-135.68c0-67.904-47.232-102.080-85.504-114.048v-4.16c44.992-9.728 105.408-47.616 105.408-127.488zM423.872 570.048c0-47.296 37.504-80.32 88.512-80.32s88.128 33.024 88.128 80.256c0 46.912-37.12 78.72-88.128 78.72s-88.512-31.808-88.512-78.72zM405.888 336.768c0-53.632 46.080-90.368 106.496-90.368 60.352 0 106.112 36.736 106.112 90.368 0 53.952-45.76 91.136-106.112 91.136-60.416 0-106.496-37.12-106.496-91.136zM0 832c0 70.692 57.308 128 128 128v0h768c70.692 0 128-57.308 128-128v0-768c0-70.692-57.308-128-128-128v0h-768c-70.692 0-128 57.308-128 128v0 768zM960 832c0 35.346-28.654 64-64 64v0h-768c-35.346 0-64-28.654-64-64v0-768c0-35.346 28.654-64 64-64v0h768c35.346 0 64 28.654 64 64v0 768z" />
<glyph unicode="&#xe91f;" glyph-name="square-fill7" d="M423.872 569.984c0-47.232 37.504-80.256 88.512-80.256s88.128 33.024 88.128 80.256c0 46.912-37.12 78.72-88.128 78.72s-88.512-31.808-88.512-78.72zM405.888 336.768c0-53.632 46.080-90.368 106.496-90.368 60.352 0 106.112 36.736 106.112 90.368 0 53.952-45.76 91.136-106.112 91.136-60.416 0-106.496-37.12-106.496-91.136zM128 960c-70.692 0-128-57.308-128-128v0-768c0-70.692 57.308-128 128-128v0h768c70.692 0 128 57.308 128 128v0 768c0 70.692-57.308 128-128 128v0h-768zM702.080 332.608c0-89.216-77.952-150.72-191.232-150.72-112.832 0-188.992 61.12-188.992 150.016 0 81.344 60.8 118.464 105.408 128.192v4.16c-39.744 12.352-85.12 47.232-85.12 113.984 0 78.4 69.76 135.744 170.24 135.744s169.856-57.344 169.856-135.68c0-67.904-47.232-102.080-85.504-114.048v-4.16c44.992-9.728 105.408-47.616 105.408-127.488z" />
<glyph unicode="&#xe920;" glyph-name="circle8" d="M64 448c0-247.424 200.576-448 448-448s448 200.576 448 448v0c0 247.424-200.576 448-448 448s-448-200.576-448-448v0zM1024 448c0-282.77-229.23-512-512-512s-512 229.23-512 512v0c0 282.77 229.23 512 512 512s512-229.23 512-512v0zM497.728 182.656c-101.952 0-155.2 56.96-161.28 115.072h82.944c6.4-22.848 34.496-46.080 79.872-46.080 87.040 0 120.32 86.592 117.376 193.472h-4.864c-15.040-40.128-55.872-75.776-123.776-75.776-89.28 0-164.224 61.504-164.224 170.624 0 109.504 79.488 174.784 183.68 174.784 96.768 0 190.144-55.488 190.144-256.896 0-181.504-65.28-275.2-199.872-275.2zM505.28 436.864c51.712 0 98.24 33.792 98.24 102.016s-42.752 107.264-99.84 107.264c-53.632 0-97.088-39.424-97.088-106.176 0-68.608 45.312-103.040 98.56-103.040z" />
<glyph unicode="&#xe921;" glyph-name="circle-fill8" d="M1024 448c0-282.77-229.23-512-512-512s-512 229.23-512 512v0c0 282.77 229.23 512 512 512s512-229.23 512-512v0zM497.728 182.656c134.656 0 199.872 93.696 199.872 275.2 0 201.408-93.376 256.896-190.080 256.896-104.32 0-183.744-65.28-183.744-174.72 0-109.184 74.944-170.688 164.224-170.688 67.84 0 108.8 35.648 123.776 75.776h4.864c3.008-106.88-30.4-193.472-117.376-193.472-45.44 0-73.536 23.232-79.872 46.080h-82.88c6.016-58.112 59.264-115.072 161.28-115.072zM505.28 436.864c51.712 0 98.24 33.792 98.24 102.016s-42.752 107.264-99.84 107.264c-53.632 0-97.088-39.424-97.088-106.176 0-68.608 45.312-103.040 98.56-103.040z" />
<glyph unicode="&#xe922;" glyph-name="square8" d="M497.728 182.656c-101.952 0-155.2 56.96-161.28 115.072h82.944c6.4-22.848 34.496-46.080 79.872-46.080 87.040 0 120.32 86.592 117.376 193.472h-4.864c-15.040-40.128-55.872-75.776-123.776-75.776-89.28 0-164.224 61.504-164.224 170.624 0 109.504 79.488 174.784 183.68 174.784 96.768 0 190.144-55.488 190.144-256.896 0-181.504-65.28-275.2-199.872-275.2zM505.28 436.864c51.712 0 98.24 33.792 98.24 102.016s-42.752 107.264-99.84 107.264c-53.632 0-97.088-39.424-97.088-106.176 0-68.608 45.312-103.040 98.56-103.040zM0 832c0 70.692 57.308 128 128 128v0h768c70.692 0 128-57.308 128-128v0-768c0-70.692-57.308-128-128-128v0h-768c-70.692 0-128 57.308-128 128v0 768zM960 832c0 35.346-28.654 64-64 64v0h-768c-35.346 0-64-28.654-64-64v0-768c0-35.346 28.654-64 64-64v0h768c35.346 0 64 28.654 64 64v0 768z" />
<glyph unicode="&#xe923;" glyph-name="square-fill8" d="M505.28 436.864c51.712 0 98.24 33.792 98.24 102.016s-42.752 107.264-99.84 107.264c-53.632 0-97.088-39.424-97.088-106.176 0-68.608 45.312-103.040 98.56-103.040zM128 960c-70.692 0-128-57.308-128-128v0-768c0-70.692 57.308-128 128-128v0h768c70.692 0 128 57.308 128 128v0 768c0 70.692-57.308 128-128 128v0h-768zM497.728 182.656c-101.952 0-155.2 56.96-161.28 115.072h82.944c6.4-22.848 34.496-46.080 79.872-46.080 87.040 0 120.32 86.592 117.376 193.472h-4.864c-15.040-40.128-55.872-75.776-123.776-75.776-89.28 0-164.224 61.504-164.224 170.624 0 109.504 79.488 174.784 183.68 174.784 96.768 0 190.144-55.488 190.144-256.896 0-181.504-65.28-275.2-199.872-275.2z" />
<glyph unicode="&#xe924;" glyph-name="123" d="M183.872 236.992v457.92h-75.136l-108.736-79.168v-72.768l104.96 75.52h3.84v-381.504h75.136zM389.504 562.752v4.032c0 39.552 28.16 74.816 76.544 74.816 43.264 0 75.136-28.16 75.136-70.784 0-39.936-26.88-70.464-51.648-97.664l-170.176-188.544v-47.616h305.92v63.36h-200.128v4.416l113.088 127.104c41.6 46.336 79.168 85.248 79.168 145.28-0.064 72.512-59.136 126.848-149.696 126.848-100.672 0-151.040-68.096-151.040-137.6v-3.648h72.832zM809.28 442.24h50.304c52.672 0 87.936-30.784 88.256-75.456 0.64-45.248-35.2-77.824-90.944-77.44-49.28 0.32-84.864 26.816-88.256 60.992h-70.080c2.688-67.392 60.032-122.752 157.696-122.752 94.592 0 169.088 53.696 167.68 137.216-1.28 73.152-59.008 105.664-99.264 109.696v4.032c34.24 5.76 86.208 42.24 84.864 107.392-1.664 67.392-59.712 118.72-150.976 118.080-96-0.32-148.288-56.32-150.272-121.472h71.424c2.048 31.872 31.872 60.416 77.184 60.416 44.992 0 77.184-27.84 77.184-68.48 0.32-40.96-32.256-70.784-76.8-70.784h-48v-61.44z" />
<glyph unicode="&#xe925;" glyph-name="activity" d="M384 832c13.764-0.006 25.496-8.702 30.008-20.898l0.072-0.222 225.92-621.184 97.92 269.312c4.62 12.355 16.325 20.992 30.047 20.992 0.012 0 0.023 0 0.035 0h223.998c17.673 0 32-14.327 32-32s-14.327-32-32-32v0h-201.6l-120.32-330.88c-4.595-12.403-16.324-21.082-30.080-21.082s-25.484 8.68-30.008 20.861l-0.072 0.221-225.92 621.184-97.92-269.248c-4.603-12.389-16.324-21.056-30.070-21.056-0.003 0-0.007 0-0.010 0h-223.999c-17.673 0-32 14.327-32 32s14.327 32 32 32v0h201.6l120.32 330.88c4.584 12.418 16.316 21.114 30.079 21.12h0.001z" />
<glyph unicode="&#xe926;" glyph-name="airplane" d="M411.392 886.336c17.92 35.84 50.24 73.664 100.608 73.664s82.688-37.888 100.608-73.664c18.496-37.056 27.392-81.92 27.392-118.336v-236.224l330.88-165.44c31.743-16.103 53.119-48.499 53.12-85.888v0-88.448c-0.008-17.667-14.332-31.985-32-31.985-1.854 0-3.67 0.158-5.438 0.46l0.19-0.027-352.448 58.752-24-144.192 84.352-84.352c5.808-5.794 9.401-13.805 9.401-22.656 0-17.673-14.327-32-32-32-0.020 0-0.040 0-0.060 0h-319.997c-0.017 0-0.037 0-0.057 0-17.673 0-32 14.327-32 32 0 8.851 3.593 16.862 9.401 22.655l84.417 84.353-24.064 144.192-352.448-58.752c-1.578-0.276-3.394-0.433-5.248-0.433-17.668 0-31.992 14.318-32 31.984v88.449c0.001 37.389 21.377 69.785 52.574 85.636l0.546 0.252 330.88 165.44v236.224c0 36.352 8.96 81.344 27.392 118.336zM468.608 857.664c-13.504-26.944-20.608-62.080-20.608-89.664v-256c0-12.446-7.106-23.233-17.483-28.524l-0.181-0.084-348.672-174.336c-10.558-5.375-17.664-16.162-17.664-28.608v0-50.688l346.752 57.792c1.577 0.276 3.393 0.433 5.247 0.433 15.791 0 28.911-11.438 31.526-26.482l0.027-0.191 32-192c0.282-1.596 0.444-3.434 0.444-5.31 0-8.852-3.594-16.864-9.403-22.658l-0.001-0.001-41.28-41.344h165.504l-41.408 41.344c-5.804 5.793-9.394 13.802-9.394 22.649 0 1.856 0.158 3.675 0.461 5.444l-0.027-0.19 32 192c2.611 15.27 15.748 26.746 31.566 26.746 1.871 0 3.705-0.161 5.489-0.469l-0.191 0.027 346.688-57.792v50.688c0 12.446-7.106 23.233-17.483 28.524l-0.181 0.084-348.672 174.336c-10.558 5.375-17.664 16.162-17.664 28.608v0 256c0 27.648-7.040 62.656-20.608 89.664-14.080 28.16-29.76 38.336-43.392 38.336s-29.312-10.112-43.392-38.336z" />
<glyph unicode="&#xe927;" glyph-name="airplane-engines" d="M512 960c-50.368 0-82.688-37.888-100.608-73.664-16.991-34.593-27.063-75.25-27.391-118.225l-0.001-0.111v-236.224l-128-64v12.224c0 17.673-14.327 32-32 32v0h-64c-17.673 0-32-14.327-32-32v0-76.224l-74.88-37.44c-31.743-16.103-53.119-48.499-53.12-85.888v0-88.448c0.008-17.667 14.332-31.985 32-31.985 1.854 0 3.67 0.158 5.438 0.46l-0.19-0.027 104.384 17.408 20.032-59.968c4.387-12.788 16.307-21.815 30.336-21.815s25.949 9.028 30.269 21.59l0.067 0.225 25.92 77.696 141.44 23.616 24-144.192-84.352-84.352c-5.808-5.794-9.401-13.805-9.401-22.656 0-17.673 14.327-32 32-32 0.020 0 0.040 0 0.060 0h319.997c0.017 0 0.037 0 0.057 0 17.673 0 32 14.327 32 32 0 8.851-3.593 16.862-9.401 22.655l-84.353 84.353 24 144.192 141.44-23.616 25.92-77.696c4.387-12.788 16.307-21.815 30.336-21.815s25.949 9.028 30.269 21.59l0.067 0.225 20.032 59.968 104.32-17.408c1.597-0.282 3.436-0.444 5.312-0.444 17.672 0 31.998 14.325 32 31.996v0 88.448c-0.001 37.389-21.377 69.785-52.574 85.636l-0.546 0.252-74.88 37.44v76.224c0 17.673-14.327 32-32 32v0h-64c-17.673 0-32-14.327-32-32v0-12.224l-128 64v236.224c0 36.352-8.96 81.344-27.392 118.336-17.92 35.84-50.24 73.664-100.608 73.664zM448 768c0 27.648 7.040 62.656 20.608 89.664 14.080 28.16 29.76 38.336 43.392 38.336s29.312-10.112 43.392-38.336c13.504-26.944 20.608-62.080 20.608-89.664v-256c0-12.446 7.106-23.233 17.483-28.524l0.181-0.084 348.672-174.336c10.558-5.375 17.664-16.162 17.664-28.608v0-50.688l-346.752 57.792c-1.577 0.276-3.393 0.433-5.247 0.433-15.791 0-28.911-11.438-31.526-26.482l-0.027-0.191-32-192c-0.282-1.596-0.444-3.434-0.444-5.31 0-8.852 3.594-16.864 9.403-22.658l41.345-41.345h-165.504l41.408 41.344c5.804 5.793 9.394 13.802 9.394 22.649 0 1.856-0.158 3.675-0.461 5.444l0.027-0.19-32 192c-2.611 15.27-15.748 26.746-31.566 26.746-1.871 0-3.705-0.161-5.489-0.469l0.191 0.027-346.752-57.792v50.688c0 12.446 7.106 23.233 17.483 28.524l0.181 0.084 348.672 174.336c10.558 5.375 17.664 16.162 17.664 28.608v0 256z" />
<glyph unicode="&#xe928;" glyph-name="airplane-engines-fill" d="M512 960c-50.368 0-82.688-37.888-100.608-73.664-16.991-34.593-27.063-75.25-27.391-118.225l-0.001-0.111v-236.224l-128-64v12.224c0 17.673-14.327 32-32 32v0h-64c-17.673 0-32-14.327-32-32v0-76.224l-74.88-37.44c-31.743-16.103-53.119-48.499-53.12-85.888v0-88.448c0.008-17.667 14.332-31.985 32-31.985 1.854 0 3.67 0.158 5.438 0.46l-0.19-0.027 104.384 17.408 20.032-59.968c4.387-12.788 16.307-21.815 30.336-21.815s25.949 9.028 30.269 21.59l0.067 0.225 25.92 77.696 141.44 23.616 24-144.192-84.352-84.352c-5.808-5.794-9.401-13.805-9.401-22.656 0-17.673 14.327-32 32-32 0.020 0 0.040 0 0.060 0h319.997c0.017 0 0.037 0 0.057 0 17.673 0 32 14.327 32 32 0 8.851-3.593 16.862-9.401 22.655l-84.353 84.353 24 144.192 141.44-23.616 25.92-77.696c4.387-12.788 16.307-21.815 30.336-21.815s25.949 9.028 30.269 21.59l0.067 0.225 20.032 59.968 104.32-17.408c1.597-0.282 3.436-0.444 5.312-0.444 17.672 0 31.998 14.325 32 31.996v0 88.448c-0.001 37.389-21.377 69.785-52.574 85.636l-0.546 0.252-74.88 37.44v76.224c0 17.673-14.327 32-32 32v0h-64c-17.673 0-32-14.327-32-32v0-12.224l-128 64v236.224c0 36.352-8.96 81.344-27.392 118.336-17.92 35.84-50.24 73.664-100.608 73.664z" />
<glyph unicode="&#xe929;" glyph-name="airplane-fill" d="M411.392 886.336c17.92 35.84 50.24 73.664 100.608 73.664s82.688-37.888 100.608-73.664c18.496-37.056 27.392-81.92 27.392-118.336v-236.224l330.88-165.44c31.743-16.103 53.119-48.499 53.12-85.888v0-88.448c-0.008-17.667-14.332-31.985-32-31.985-1.854 0-3.67 0.158-5.438 0.46l0.19-0.027-352.448 58.752-24-144.192 84.352-84.352c5.808-5.794 9.401-13.805 9.401-22.656 0-17.673-14.327-32-32-32-0.020 0-0.040 0-0.060 0h-319.997c-0.017 0-0.037 0-0.057 0-17.673 0-32 14.327-32 32 0 8.851 3.593 16.862 9.401 22.655l84.417 84.353-24.064 144.192-352.448-58.752c-1.578-0.276-3.394-0.433-5.248-0.433-17.668 0-31.992 14.318-32 31.984v88.449c0.001 37.389 21.377 69.785 52.574 85.636l0.546 0.252 330.88 165.44v236.224c0 36.352 8.96 81.344 27.392 118.336z" />
<glyph unicode="&#xe92a;" glyph-name="alarm" d="M544 608c0 17.673-14.327 32-32 32s-32-14.327-32-32v0-215.168l-91.456-152.32c-2.868-4.704-4.566-10.394-4.566-16.48 0-17.685 14.337-32.022 32.022-32.022 11.599 0 21.758 6.167 27.376 15.401l0.080 0.142 96 160c2.854 4.693 4.544 10.368 4.544 16.437 0 0.004 0 0.008 0 0.012v-0.001 224zM416 960c-17.673 0-32-14.327-32-32s14.327-32 32-32v0h32v-68.48c-218.364-32.434-383.996-218.604-383.996-443.46 0-144.007 67.936-272.146 173.508-354.117l1.016-0.759-38.528-38.528c-5.804-5.796-9.394-13.807-9.394-22.656 0-17.683 14.335-32.018 32.018-32.018 8.834 0 16.832 3.577 22.624 9.362v0l47.744 47.744c62.847-35.913 138.121-57.088 218.341-57.088 0.234 0 0.469 0 0.703 0.001h-0.036c0.198 0 0.432 0 0.667 0 80.22 0 155.495 21.175 220.539 58.241l-2.197-1.153 47.744-47.744c5.792-5.785 13.79-9.362 22.624-9.362 17.683 0 32.018 14.335 32.018 32.018 0 8.849-3.59 16.86-9.393 22.656v0l-38.464 38.528c106.582 82.73 174.514 210.866 174.514 354.868 0 224.874-165.659 411.057-381.598 443.168l-2.451 0.299v68.48h32c17.673 0 32 14.327 32 32s-14.327 32-32 32v0h-192zM482.432 766.848c8.851 0.715 19.162 1.123 29.568 1.123s20.717-0.408 30.917-1.208l-1.349 0.085c198.967-15.828 354.432-181.189 354.432-382.86 0-212.077-171.923-384-384-384s-384 171.923-384 384c0 201.671 155.464 367.031 353.086 382.774l1.346 0.086zM0 736c0-48.192 21.312-91.456 55.040-120.768 50.347 97.73 127.998 175.381 222.854 224.378l2.874 1.35c-29.493 33.806-72.65 55.047-120.768 55.047-88.366 0-160-71.634-160-160 0-0.003 0-0.005 0-0.008v0zM864 896c-48.192 0-91.456-21.312-120.768-55.040 97.73-50.347 175.381-127.998 224.378-222.854l1.35-2.874c33.806 29.493 55.047 72.65 55.047 120.768 0 88.366-71.634 160-160 160-0.003 0-0.005 0-0.008 0v0z" />
<glyph unicode="&#xe92b;" glyph-name="alarm-fill" d="M384 928c0 17.673 14.327 32 32 32v0h192c17.673 0 32-14.327 32-32s-14.327-32-32-32v0h-32v-68.48c218.39-32.411 384.050-218.593 384.050-443.468 0-144.002-67.932-272.138-173.498-354.11l-1.016-0.759 38.464-38.528c5.804-5.796 9.394-13.807 9.394-22.656 0-17.683-14.335-32.018-32.018-32.018-8.834 0-16.832 3.577-22.624 9.362v0l-47.744 47.744c-62.847-35.913-138.121-57.088-218.341-57.088-0.234 0-0.469 0-0.703 0.001h0.036c-0.198 0-0.432 0-0.667 0-80.22 0-155.495 21.175-220.539 58.241l2.197-1.153-47.744-47.744c-5.792-5.785-13.79-9.362-22.624-9.362-17.683 0-32.018 14.335-32.018 32.018 0 8.849 3.59 16.86 9.393 22.656v0l38.528 38.528c-106.588 82.73-174.524 210.869-174.524 354.876 0 224.855 165.631 411.026 381.544 443.16l2.452 0.3v68.48h-32c-17.673 0-32 14.327-32 32v0zM544 608c0 17.673-14.327 32-32 32s-32-14.327-32-32v0-215.168l-91.456-152.32c-2.868-4.704-4.566-10.394-4.566-16.48 0-17.685 14.337-32.022 32.022-32.022 11.599 0 21.758 6.167 27.376 15.401l0.080 0.142 96 160c2.854 4.693 4.544 10.368 4.544 16.437 0 0.004 0 0.008 0 0.012v-0.001 224zM55.040 615.232c-33.774 29.491-54.992 72.628-54.992 120.72 0 88.366 71.634 160 160 160 48.092 0 91.229-21.218 120.559-54.804l0.161-0.188c-97.73-50.347-175.381-127.998-224.378-222.854l-1.35-2.874zM743.232 840.96c29.491 33.774 72.628 54.992 120.72 54.992 88.366 0 160-71.634 160-160 0-48.092-21.218-91.229-54.804-120.559l-0.188-0.161c-50.347 97.73-127.998 175.381-222.854 224.378l-2.874 1.35z" />
<glyph unicode="&#xe92c;" glyph-name="alexa" d="M511.744 960c-282.644-0.073-511.744-229.218-511.744-511.872 0-0.045 0-0.090 0-0.135v0.007c0-0.035 0-0.078 0-0.12 0-258.62 191.748-472.455 440.832-507.093l2.688-0.306v103.232c0 0.096 0.001 0.209 0.001 0.322 0 29.608-18.967 54.785-45.413 64.045l-0.476 0.145c-143.126 49.233-244.136 182.715-244.136 339.789 0 3.033 0.038 6.058 0.113 9.073l-0.009-0.446c4.073 194.047 162.339 349.793 356.982 349.793 1.714 0 3.424-0.012 5.132-0.036l-0.259 0.003c196.245-2.171 354.495-161.762 354.495-358.315 0-4.756-0.093-9.491-0.276-14.202l0.021 0.678-0.128-2.944c-0.241-5.174-0.516-9.434-0.858-13.675l0.090 1.387-0.32-3.904c-0.646-7.477-1.394-13.712-2.324-19.887l0.212 1.711-0.64-4.352c-43.84-289.024-420.096-451.456-422.144-452.352 20.436-2.891 44.041-4.541 68.032-4.541 282.699 0 511.872 229.173 511.872 511.872 0 0.044 0 0.088 0 0.132v-0.007c0 0.019 0 0.041 0 0.064 0 282.654-229.1 511.799-511.736 511.872h-0.008z" />
<glyph unicode="&#xe92d;" glyph-name="align-bottom" d="M448 896h128c35.346 0 64-28.654 64-64v-640c0-35.346-28.654-64-64-64h-128c-35.346 0-64 28.654-64 64v640c0 35.346 28.654 64 64 64zM96 64c-17.673 0-32-14.327-32-32s14.327-32 32-32v0 64zM928 0c17.673 0 32 14.327 32 32s-14.327 32-32 32v0-64zM96 0h832v64h-832v-64z" />
<glyph unicode="&#xe92e;" glyph-name="align-center" d="M512 896c17.673 0 32-14.327 32-32v0-288h-64v288c0 17.673 14.327 32 32 32v0zM512 0c-17.673 0-32 14.327-32 32v0 288h64v-288c0-17.673-14.327-32-32-32v0zM128 512c0 35.346 28.654 64 64 64v0h640c35.346 0 64-28.654 64-64v0-128c0-35.346-28.654-64-64-64v0h-640c-35.346 0-64 28.654-64 64v0 128z" />
<glyph unicode="&#xe92f;" glyph-name="align-end" d="M928 896c-17.673 0-32-14.327-32-32v0-832c0-17.673 14.327-32 32-32s32 14.327 32 32v0 832c0 17.673-14.327 32-32 32v0zM832 512c0 35.346-28.654 64-64 64v0h-640c-35.346 0-64-28.654-64-64v0-128c0-35.346 28.654-64 64-64v0h640c35.346 0 64 28.654 64 64v0 128z" />
<glyph unicode="&#xe930;" glyph-name="align-middle" d="M384 128c0-35.346 28.654-64 64-64v0h128c35.346 0 64 28.654 64 64v0 640c0 35.346-28.654 64-64 64v0h-128c-35.346 0-64-28.654-64-64v0-640zM64 448c0-17.673 14.327-32 32-32v0h288v64h-288c-17.673 0-32-14.327-32-32v0zM960 448c0-17.673-14.327-32-32-32v0h-288v64h288c17.673 0 32-14.327 32-32v0z" />
<glyph unicode="&#xe931;" glyph-name="align-start" d="M96 896c17.673 0 32-14.327 32-32v0-832c0-17.673-14.327-32-32-32s-32 14.327-32 32v0 832c0 17.673 14.327 32 32 32v0zM192 512c0 35.346 28.654 64 64 64v0h640c35.346 0 64-28.654 64-64v0-128c0-35.346-28.654-64-64-64v0h-640c-35.346 0-64 28.654-64 64v0 128z" />
<glyph unicode="&#xe932;" glyph-name="align-top" d="M448 0h128c35.346 0 64 28.654 64 64v640c0 35.346-28.654 64-64 64h-128c-35.346 0-64-28.654-64-64v-640c0-35.346 28.654-64 64-64zM96 832c-17.673 0-32 14.327-32 32s14.327 32 32 32v0-64zM928 896c17.673 0 32-14.327 32-32s-14.327-32-32-32v0 64zM96 896h832v-64h-832v64z" />
<glyph unicode="&#xe933;" glyph-name="alipay" d="M162.624 960h701.376c89.866-0.399 162.562-73.341 162.562-163.262 0-0.271-0.001-0.541-0.002-0.811v0.042-531.008c-0.384 0-33.984 2.944-190.592 52.032-26.368 8.96-58.624 20.928-94.656 34.304-19.392 7.232-39.936 14.848-61.248 22.592 35.843 62.167 64.969 134.115 83.619 210.177l1.181 5.695h-200.256v72.704h245.184v40.576h-245.12v121.216h-100.032c-17.536 0-17.536-17.472-17.536-17.472v-103.744h-248.064v-40.576h248v-72.704h-204.8v-40.576h397.12c-14.528-50.496-34.048-97.92-57.216-140.928-128.832 42.88-266.304 77.568-352.64 56.192-55.296-13.696-90.88-38.208-111.744-63.872-95.936-117.76-27.136-296.512 175.424-296.512 119.808 0 235.2 67.392 324.608 178.368 133.12-64.512 407.68-175.232 408.768-175.68v-6.72c0.001-0.228 0.002-0.499 0.002-0.77 0-89.921-72.696-162.863-162.524-163.262h-701.414c-89.901 0.399-162.626 73.37-162.626 163.326 0 0.248 0.001 0.496 0.002 0.744v-0.038 695.936c-0.001 0.21-0.002 0.457-0.002 0.706 0 89.957 72.725 162.927 162.588 163.326h0.038zM147.776 366.72c-78.080-68.672-31.36-194.176 126.592-194.176 91.776 0 183.552 59.2 255.616 153.984-102.528 50.496-189.376 86.592-283.2 77.248-25.408-2.56-72.96-13.888-99.008-37.12z" />
<glyph unicode="&#xe934;" glyph-name="alt" d="M64 96c0-17.673 14.327-32 32-32v0h243.008c0.007 0 0.015 0 0.023 0 12.040 0 22.527 6.65 27.989 16.477l0.083 0.163 336.896 687.36h224c17.673 0 32 14.327 32 32s-14.327 32-32 32v0h-243.008c-0.007 0-0.015 0-0.023 0-12.040 0-22.527-6.65-27.989-16.477l-0.083-0.163-336.896-687.36h-224c-17.673 0-32-14.327-32-32v0zM704 96c0-17.673 14.327-32 32-32v0h192c17.673 0 32 14.327 32 32s-14.327 32-32 32v0h-192c-17.673 0-32-14.327-32-32v0z" />
<glyph unicode="&#xe935;" glyph-name="android" d="M176.64 764.096c4.43 2.466 9.716 3.917 15.341 3.917 12.071 0 22.581-6.684 28.031-16.552l0.083-0.165 82.112-150.528c61.725 24.83 133.292 39.234 208.224 39.234 0.551 0 1.102-0.001 1.653-0.002h-0.085c0.465 0.001 1.017 0.002 1.568 0.002 74.931 0 146.498-14.404 212.082-40.594l-3.859 1.36 82.112 150.528c5.42 10.418 16.134 17.411 28.481 17.411 17.673 0 32-14.327 32-32 0-5.892-1.592-11.412-4.37-16.154l0.082 0.151-80.128-146.88c146.432-78.848 244.032-220.352 244.032-381.824h-1024c0 161.472 97.6 302.976 244.032 381.824l-80.192 146.816c-2.449 4.417-3.89 9.686-3.89 15.292 0 12.060 6.672 22.562 16.526 28.017l0.164 0.083zM320 320c35.346 0 64 28.654 64 64s-28.654 64-64 64v0c-35.346 0-64-28.654-64-64s28.654-64 64-64v0zM704 320c35.346 0 64 28.654 64 64s-28.654 64-64 64v0c-35.346 0-64-28.654-64-64s28.654-64 64-64v0z" />
<glyph unicode="&#xe936;" glyph-name="android2" d="M653.632 865.856l44.224 80.64c2.944 5.312 1.92 9.408-3.072 12.288-5.44 2.432-9.6 1.216-12.48-3.712l-44.8-81.28c-36.534 16.42-79.192 25.986-124.084 25.986-0.387 0-0.773-0.001-1.159-0.002h0.060c-44.032 0-85.76-8.64-125.184-25.856l-44.8 81.28c-2.944 4.8-7.040 5.952-12.48 3.52-4.992-2.944-6.016-7.040-3.136-12.352l44.224-80.576c-44.092-22.016-80.254-54.137-106.447-93.467l-0.625-0.997c-24.978-36.925-39.875-82.449-39.875-131.451 0-0.407 0.001-0.813 0.003-1.22v0.063h576c0 48-13.312 92.16-39.872 132.608-26.707 40.233-62.66 72.33-104.938 93.748l-1.558 0.716zM398.080 748.608c-4.266-4.348-10.203-7.042-16.77-7.042-0.112 0-0.224 0.001-0.335 0.002h0.017c-0.155-0.004-0.338-0.006-0.522-0.006-6.423 0-12.215 2.704-16.3 7.035l-0.010 0.011c-4.233 4.238-6.851 10.090-6.851 16.553 0 0.121 0.001 0.241 0.003 0.361v-0.018c-0.001 0.090-0.002 0.196-0.002 0.302 0 6.496 2.616 12.382 6.852 16.66l-0.002-0.002c4.105 4.343 9.905 7.045 16.337 7.045 0.174 0 0.348-0.002 0.521-0.006h-0.026c6.592 0 12.352-2.368 17.088-7.040 4.42-4.206 7.169-10.133 7.169-16.702 0-0.091-0.001-0.181-0.002-0.271v0.014c0.001-0.058 0.001-0.126 0.001-0.194 0-6.569-2.749-12.496-7.159-16.693l-0.010-0.009zM660.544 748.608c-4.105-4.342-9.905-7.044-16.336-7.044-0.152 0-0.304 0.002-0.455 0.005h0.023c-0.121-0.002-0.264-0.004-0.408-0.004-6.559 0-12.488 2.696-16.74 7.039l-0.004 0.004c-4.419 4.186-7.169 10.095-7.169 16.647 0 0.087 0 0.175 0.001 0.262v-0.013c0 6.592 2.368 12.224 7.168 16.96 4.266 4.348 10.204 7.043 16.771 7.043 0.134 0 0.268-0.001 0.402-0.003h-0.020c6.656 0 12.16-2.368 16.768-7.040 4.234-4.248 6.851-10.108 6.851-16.58 0-0.134-0.001-0.267-0.003-0.4v0.020c0-6.528-2.24-12.16-6.848-16.896zM224 206.72c0-18.816 6.656-34.816 19.904-48 13.312-13.056 29.44-19.648 48.64-19.648h48.512l0.64-139.648c0-17.664 6.208-32.64 18.688-44.992 11.17-11.383 26.716-18.438 43.91-18.438 0.313 0 0.625 0.002 0.937 0.007l-0.047-0.001c0.358-0.007 0.78-0.012 1.203-0.012 17.297 0 32.948 7.053 44.232 18.439l0.005 0.005c11.533 11.082 18.698 26.637 18.698 43.865 0 0.396-0.004 0.792-0.011 1.187l0.001-0.059v139.648h85.952v-139.648c0-17.664 6.208-32.64 18.688-44.992 11.279-11.391 26.921-18.444 44.21-18.444 0.432 0 0.864 0.004 1.294 0.013l-0.064-0.001c0.358-0.007 0.78-0.012 1.203-0.012 17.297 0 32.948 7.053 44.232 18.439l0.005 0.005c11.533 11.082 18.698 26.637 18.698 43.865 0 0.396-0.004 0.792-0.011 1.187l0.001-0.059v139.648h48.64c18.624 0 34.56 6.592 47.936 19.712 13.248 13.12 19.904 29.12 19.904 48v409.856h-576v-409.856zM895.68 628.288c-0.32 0.006-0.698 0.009-1.077 0.009-17.060 0-32.533-6.79-43.866-17.815l0.014 0.014c-11.552-10.676-18.761-25.904-18.761-42.817 0-0.36 0.003-0.719 0.010-1.077l-0.001 0.054v-260.032c0-17.344 6.272-32.064 18.752-44.16 11.234-11.235 26.755-18.185 43.899-18.185 0.362 0 0.723 0.003 1.083 0.009l-0.054-0.001c17.92 0 33.088 6.080 45.568 18.176 11.558 10.821 18.76 26.173 18.76 43.207 0 0.335-0.003 0.67-0.008 1.004l0.001-0.050v260.032c0.006 0.304 0.009 0.663 0.009 1.023 0 16.913-7.209 32.142-18.722 42.781l-0.039 0.036c-11.432 11.019-27.007 17.807-44.168 17.807-0.492 0-0.983-0.006-1.472-0.017l0.073 0.001zM82.752 610.176c11.373 11.206 26.996 18.126 44.236 18.126 0.469 0 0.936-0.005 1.402-0.015l-0.070 0.001c17.472 0 32.448-6.016 44.928-18.112 11.55-10.707 18.755-25.96 18.755-42.896 0-0.219-0.001-0.439-0.004-0.657v0.033-260.032c0.006-0.308 0.009-0.67 0.009-1.034 0-16.948-7.069-32.246-18.419-43.105l-0.022-0.021c-11.235-11.239-26.758-18.191-43.905-18.191-0.472 0-0.943 0.005-1.413 0.016l0.070-0.001c-0.37-0.008-0.806-0.012-1.243-0.012-17.279 0-32.936 6.945-44.331 18.195l0.007-0.007c-11.558 10.821-18.76 26.173-18.76 43.207 0 0.335 0.003 0.67 0.008 1.004l-0.001-0.050v260.032c0 16.896 6.272 31.424 18.752 43.52z" />
<glyph unicode="&#xe937;" glyph-name="app" d="M704 832c106.039 0 192-85.961 192-192v0-384c0-106.039-85.961-192-192-192v0h-384c-106.039 0-192 85.961-192 192v0 384c0 106.039 85.961 192 192 192v0h384zM320 896c-141.385 0-256-114.615-256-256v0-384c0-141.385 114.615-256 256-256v0h384c141.385 0 256 114.615 256 256v0 384c0 141.385-114.615 256-256 256v0h-384z" />
<glyph unicode="&#xe938;" glyph-name="app-indicator" d="M352 832c-123.712 0-224-100.288-224-224v0-320c0-123.712 100.288-224 224-224v0h320c123.712 0 224 100.288 224 224v0 160c0 17.673 14.327 32 32 32s32-14.327 32-32v0-160c0-159.058-128.942-288-288-288v0h-320c-159.058 0-288 128.942-288 288v0 320c0 159.058 128.942 288 288 288v0h160c17.673 0 32-14.327 32-32s-14.327-32-32-32v0h-160zM1024 768c0-106.039-85.961-192-192-192s-192 85.961-192 192v0c0 106.039 85.961 192 192 192s192-85.961 192-192v0z" />
<glyph unicode="&#xe939;" glyph-name="apple" d="M715.648 959.488c-2.176 2.432-80.576-0.96-148.8-75.008-68.224-73.984-57.728-158.848-56.192-161.024s97.28-5.568 158.4 80.512c61.12 86.080 48.768 153.024 46.592 155.52zM927.744 208.576c-3.072 6.144-148.8 78.976-135.232 219.008 13.568 140.096 107.2 178.496 108.672 182.656s-38.208 50.56-80.256 74.048c-28.95 15.838-63.123 25.901-99.464 27.753l-0.568 0.023c-6.912 0.192-30.912 6.080-80.256-7.424-32.512-8.896-105.792-37.696-125.952-38.848-20.224-1.152-80.384 33.408-145.088 42.56-41.408 8-85.312-8.384-116.736-20.992-31.36-12.544-91.008-48.256-132.736-143.168-41.728-94.848-19.904-245.12-4.288-291.84 15.616-46.656 40-123.136 81.472-178.944 36.864-62.976 85.76-106.688 106.176-121.536s78.016-24.704 117.952-4.288c32.128 19.712 90.112 31.040 113.024 30.208 22.848-0.832 67.904-9.856 114.048-34.496 36.544-12.608 71.104-7.36 105.728 6.72 34.624 14.144 84.736 67.776 143.232 176.512 22.208 50.56 32.32 77.888 30.272 82.048z" />
<glyph unicode="&#xe93a;" glyph-name="archive" d="M0 832c0 35.346 28.654 64 64 64v0h896c35.346 0 64-28.654 64-64v0-128c0-35.346-28.654-64-64-64v0-480c0-88.366-71.634-160-160-160v0h-576c-88.366 0-160 71.634-160 160v0 480c-35.346 0-64 28.654-64 64v0 128zM128 640v-480c0-53.019 42.981-96 96-96v0h576c53.019 0 96 42.981 96 96v0 480h-768zM960 832h-896v-128h896v128zM320 480c0 17.673 14.327 32 32 32v0h320c17.673 0 32-14.327 32-32s-14.327-32-32-32v0h-320c-17.673 0-32 14.327-32 32v0z" />
<glyph unicode="&#xe93b;" glyph-name="archive-fill" d="M809.152 0c85.504 0 150.848 73.92 150.848 160v480h-896v-480c0-86.080 65.344-160 150.848-160h594.304zM352 512h320c17.673 0 32-14.327 32-32s-14.327-32-32-32v0h-320c-17.673 0-32 14.327-32 32s14.327 32 32 32v0zM51.2 896c-28.277 0-51.2-22.923-51.2-51.2v0-76.8c0-28.277 22.923-51.2 51.2-51.2v0h921.6c28.277 0 51.2 22.923 51.2 51.2v0 76.8c0 28.277-22.923 51.2-51.2 51.2v0h-921.6z" />
<glyph unicode="&#xe93c;" glyph-name="arrow-90deg-down" d="M310.656 9.344c-5.794-5.808-13.805-9.401-22.656-9.401s-16.862 3.593-22.655 9.401l-256.001 256.001c-5.798 5.798-9.384 13.808-9.384 22.656 0 17.695 14.345 32.040 32.040 32.040 8.848 0 16.858-3.586 22.656-9.384l201.344-201.408v626.752c0 88.366 71.634 160 160 160v0h512c17.673 0 32-14.327 32-32s-14.327-32-32-32v0h-512c-53.019 0-96-42.981-96-96v0-626.752l201.344 201.408c5.798 5.798 13.808 9.384 22.656 9.384 17.695 0 32.040-14.345 32.040-32.040 0-8.848-3.586-16.858-9.384-22.656v0l-256-256z" />
<glyph unicode="&#xe93d;" glyph-name="arrow-90deg-left" d="M73.344 649.344c-5.808 5.794-9.401 13.805-9.401 22.656s3.593 16.862 9.401 22.655l256.001 256.001c5.798 5.798 13.808 9.384 22.656 9.384 17.695 0 32.040-14.345 32.040-32.040 0-8.848-3.586-16.858-9.384-22.656l-201.408-201.344h626.752c88.366 0 160-71.634 160-160v0-512c0-17.673-14.327-32-32-32s-32 14.327-32 32v0 512c0 53.019-42.981 96-96 96v0h-626.752l201.408-201.344c5.798-5.798 9.384-13.808 9.384-22.656 0-17.695-14.345-32.040-32.040-32.040-8.848 0-16.858 3.586-22.656 9.384v0l-256 256z" />
<glyph unicode="&#xe93e;" glyph-name="arrow-90deg-right" d="M950.656 649.344c5.808 5.794 9.401 13.805 9.401 22.656s-3.593 16.862-9.401 22.655l-256.001 256.001c-5.798 5.798-13.808 9.384-22.656 9.384-17.695 0-32.040-14.345-32.040-32.040 0-8.848 3.586-16.858 9.384-22.656l201.408-201.344h-626.752c-88.366 0-160-71.634-160-160v0-512c0-17.673 14.327-32 32-32s32 14.327 32 32v0 512c0 53.019 42.981 96 96 96v0h626.752l-201.408-201.344c-5.798-5.798-9.384-13.808-9.384-22.656 0-17.695 14.345-32.040 32.040-32.040 8.848 0 16.858 3.586 22.656 9.384v0l256 256z" />
<glyph unicode="&#xe93f;" glyph-name="arrow-90deg-up" d="M310.656 886.656c-5.794 5.808-13.805 9.401-22.656 9.401s-16.862-3.593-22.655-9.401l-256.001-256.001c-5.798-5.798-9.384-13.808-9.384-22.656 0-17.695 14.345-32.040 32.040-32.040 8.848 0 16.858 3.586 22.656 9.384l201.344 201.408v-626.752c0-88.366 71.634-160 160-160v0h512c17.673 0 32 14.327 32 32s-14.327 32-32 32v0h-512c-53.019 0-96 42.981-96 96v0 626.752l201.344-201.408c5.798-5.798 13.808-9.384 22.656-9.384 17.695 0 32.040 14.345 32.040 32.040 0 8.848-3.586 16.858-9.384 22.656v0l-256 256z" />
<glyph unicode="&#xe940;" glyph-name="arrow-bar-down" d="M64 736v0c0-17.673 14.327-32 32-32h832c17.673 0 32 14.327 32 32s-14.327 32-32 32h-832c-17.673 0-32-14.327-32-32zM512 576v0c-17.673 0-32-14.327-32-32v-370.752l-137.344 137.408c-5.798 5.798-13.808 9.384-22.656 9.384-17.695 0-32.040-14.345-32.040-32.040 0-8.848 3.586-16.858 9.384-22.656l192.001-192.001c5.793-5.807 13.805-9.401 22.655-9.401s16.862 3.593 22.656 9.401l192 192c5.798 5.798 9.384 13.808 9.384 22.656 0 17.695-14.345 32.040-32.040 32.040-8.848 0-16.858-3.586-22.656-9.384l-137.344-137.408v370.752c0 17.673-14.327 32-32 32z" />
<glyph unicode="&#xe941;" glyph-name="arrow-bar-left" d="M800 0v0c17.673 0 32 14.327 32 32v832c0 17.673-14.327 32-32 32s-32-14.327-32-32v-832c0-17.673 14.327-32 32-32zM640 448v0c0 17.673-14.327 32-32 32h-370.752l137.408 137.344c5.798 5.798 9.384 13.808 9.384 22.656 0 17.695-14.345 32.040-32.040 32.040-8.848 0-16.858-3.586-22.656-9.384l-192.001-192.001c-5.807-5.793-9.401-13.805-9.401-22.655s3.593-16.862 9.401-22.656l192-192c5.798-5.798 13.808-9.384 22.656-9.384 17.695 0 32.040 14.345 32.040 32.040 0 8.848-3.586 16.858-9.384 22.656l-137.408 137.344h370.752c17.673 0 32 14.327 32 32z" />
<glyph unicode="&#xe942;" glyph-name="arrow-bar-right" d="M384 448v0c0 17.673 14.327 32 32 32h370.752l-137.408 137.344c-5.798 5.798-9.384 13.808-9.384 22.656 0 17.695 14.345 32.040 32.040 32.040 8.848 0 16.858-3.586 22.656-9.384l192.001-192.001c5.807-5.793 9.401-13.805 9.401-22.655s-3.593-16.862-9.401-22.656l-192-192c-5.798-5.798-13.808-9.384-22.656-9.384-17.695 0-32.040 14.345-32.040 32.040 0 8.848 3.586 16.858 9.384 22.656l137.408 137.344h-370.752c-17.673 0-32 14.327-32 32zM224 0v0c17.673 0 32 14.327 32 32v832c0 17.673-14.327 32-32 32s-32-14.327-32-32v-832c0-17.673 14.327-32 32-32z" />
<glyph unicode="&#xe943;" glyph-name="arrow-bar-up" d="M512 320v0c-17.673 0-32 14.327-32 32v370.752l-137.344-137.408c-5.798-5.798-13.808-9.384-22.656-9.384-17.695 0-32.040 14.345-32.040 32.040 0 8.848 3.586 16.858 9.384 22.656l192.001 192.001c5.793 5.807 13.805 9.401 22.655 9.401s16.862-3.593 22.656-9.401l192-192c5.798-5.798 9.384-13.808 9.384-22.656 0-17.695-14.345-32.040-32.040-32.040-8.848 0-16.858 3.586-22.656 9.384l-137.344 137.408v-370.752c0-17.673-14.327-32-32-32zM64 160v0c0-17.673 14.327-32 32-32h832c17.673 0 32 14.327 32 32s-14.327 32-32 32h-832c-17.673 0-32-14.327-32-32z" />
<glyph unicode="&#xe944;" glyph-name="arrow-clockwise" d="M512 768c-176.678-0.070-319.877-143.312-319.877-320 0-176.731 143.269-320 320-320s320 143.269 320 320c0 48.42-10.754 94.329-30.005 135.468l0.825-1.964c-1.519 3.596-2.402 7.777-2.402 12.164 0 17.673 14.327 32 32 32 12.373 0 23.105-7.022 28.43-17.298l0.084-0.178c22.106-47.007 35.009-102.093 35.009-160.192 0-212.077-171.923-384-384-384s-384 171.923-384 384c0 212.054 171.886 383.963 383.931 384h0.003v-64zM512 674.176v251.648c0.003 8.834 7.166 15.994 16 15.994 3.907 0 7.487-1.4 10.265-3.726l-0.025 0.020 151.040-125.824c7.68-6.4 7.68-18.176 0-24.576l-151.040-125.824c-2.753-2.306-6.333-3.706-10.24-3.706-8.834 0-15.997 7.16-16 15.994v0z" />
<glyph unicode="&#xe945;" glyph-name="arrow-counterclockwise" d="M512 768c176.678-0.070 319.877-143.312 319.877-320 0-176.731-143.269-320-320-320s-320 143.269-320 320c0 48.42 10.754 94.329 30.005 135.468l-0.825-1.964c1.519 3.596 2.402 7.777 2.402 12.164 0 17.673-14.327 32-32 32-12.373 0-23.105-7.022-28.43-17.298l-0.084-0.178c-22.106-47.007-35.009-102.093-35.009-160.192 0-212.077 171.923-384 384-384s384 171.923 384 384c0 212.054-171.886 383.963-383.931 384h-0.003v-64zM512 674.176v251.648c-0.003 8.834-7.166 15.994-16 15.994-3.907 0-7.487-1.4-10.265-3.726l0.025 0.020-151.040-125.824c-3.526-2.955-5.753-7.362-5.753-12.288s2.226-9.333 5.728-12.268l0.025-0.020 151.040-125.824c2.753-2.306 6.333-3.706 10.24-3.706 8.834 0 15.997 7.16 16 15.994v0z" />
<glyph unicode="&#xe946;" glyph-name="arrow-down" d="M512 896c17.673 0 32-14.327 32-32v0-754.752l201.344 201.408c5.798 5.798 13.808 9.384 22.656 9.384 17.695 0 32.040-14.345 32.040-32.040 0-8.848-3.586-16.858-9.384-22.656v0l-256-256c-5.794-5.808-13.805-9.401-22.656-9.401s-16.862 3.593-22.655 9.401l-256.001 256.001c-5.798 5.798-9.384 13.808-9.384 22.656 0 17.695 14.345 32.040 32.040 32.040 8.848 0 16.858-3.586 22.656-9.384v0l201.344-201.408v754.752c0 17.673 14.327 32 32 32v0z" />
<glyph unicode="&#xe947;" glyph-name="arrow-down-circle" d="M64 448c0-247.424 200.576-448 448-448s448 200.576 448 448v0c0 247.424-200.576 448-448 448s-448-200.576-448-448v0zM1024 448c0-282.77-229.23-512-512-512s-512 229.23-512 512v0c0 282.77 229.23 512 512 512s512-229.23 512-512v0zM544 672v-370.752l137.344 137.408c5.798 5.798 13.808 9.384 22.656 9.384 17.695 0 32.040-14.345 32.040-32.040 0-8.848-3.586-16.858-9.384-22.656l-192.001-192.001c-5.793-5.807-13.805-9.401-22.655-9.401s-16.862 3.593-22.656 9.401l-192 192c-5.798 5.798-9.384 13.808-9.384 22.656 0 17.695 14.345 32.040 32.040 32.040 8.848 0 16.858-3.586 22.656-9.384l137.344-137.408v370.752c0 17.673 14.327 32 32 32s32-14.327 32-32z" />
<glyph unicode="&#xe948;" glyph-name="arrow-down-circle-fill" d="M1024 448c0-282.77-229.23-512-512-512s-512 229.23-512 512v0c0 282.77 229.23 512 512 512s512-229.23 512-512v0zM544 672c0 17.673-14.327 32-32 32s-32-14.327-32-32v0-370.752l-137.344 137.408c-5.798 5.798-13.808 9.384-22.656 9.384-17.695 0-32.040-14.345-32.040-32.040 0-8.848 3.586-16.858 9.384-22.656v0l192-192c5.794-5.808 13.805-9.401 22.656-9.401s16.862 3.593 22.655 9.401l192.001 192.001c5.798 5.798 9.384 13.808 9.384 22.656 0 17.695-14.345 32.040-32.040 32.040-8.848 0-16.858-3.586-22.656-9.384v0l-137.344-137.408v370.752z" />
<glyph unicode="&#xe949;" glyph-name="arrow-down-left" d="M128 96c0-17.673 14.327-32 32-32v0h384c17.673 0 32 14.327 32 32s-14.327 32-32 32v0h-306.752l649.408 649.344c5.798 5.798 9.384 13.808 9.384 22.656 0 17.695-14.345 32.040-32.040 32.040-8.848 0-16.858-3.586-22.656-9.384v0l-649.344-649.408v306.752c0 17.673-14.327 32-32 32s-32-14.327-32-32v0-384z" />
<glyph unicode="&#xe94a;" glyph-name="arrow-down-left-circle" d="M64 448c0-247.424 200.576-448 448-448s448 200.576 448 448v0c0 247.424-200.576 448-448 448s-448-200.576-448-448v0zM1024 448c0-282.77-229.23-512-512-512s-512 229.23-512 512v0c0 282.77 229.23 512 512 512s512-229.23 512-512v0zM646.144 630.656l-262.144-262.208v177.152c0 17.673-14.327 32-32 32s-32-14.327-32-32v-254.4c0-17.673 14.327-32 32-32h254.4c17.673 0 32 14.327 32 32s-14.327 32-32 32h-177.152l262.144 262.144c5.803 5.795 9.393 13.806 9.393 22.656 0 17.683-14.335 32.018-32.018 32.018-8.834 0-16.832-3.577-22.624-9.362z" />
<glyph unicode="&#xe94b;" glyph-name="arrow-down-left-circle-fill" d="M1024 448c0 282.77-229.23 512-512 512s-512-229.23-512-512v0c0-282.77 229.23-512 512-512s512 229.23 512 512v0zM646.144 627.392c5.827 6.027 13.985 9.769 23.017 9.769 17.673 0 32-14.327 32-32 0-9.032-3.742-17.19-9.76-23.009l-262.153-262.153h177.152c17.673 0 32-14.327 32-32s-14.327-32-32-32v0h-254.4c-17.673 0-32 14.327-32 32v0 254.4c0 17.673 14.327 32 32 32s32-14.327 32-32v0-177.152l262.144 262.144z" />
<glyph unicode="&#xe94c;" glyph-name="arrow-down-left-square" d="M960 832c0 35.346-28.654 64-64 64v0h-768c-35.346 0-64-28.654-64-64v0-768c0-35.346 28.654-64 64-64v0h768c35.346 0 64 28.654 64 64v0 768zM0 832c0 70.692 57.308 128 128 128v0h768c70.692 0 128-57.308 128-128v0-768c0-70.692-57.308-128-128-128v0h-768c-70.692 0-128 57.308-128 128v0 768zM646.144 630.656l-262.144-262.208v177.152c0 17.673-14.327 32-32 32s-32-14.327-32-32v-254.4c0-17.673 14.327-32 32-32h254.4c17.673 0 32 14.327 32 32s-14.327 32-32 32h-177.152l262.144 262.144c5.803 5.795 9.393 13.806 9.393 22.656 0 17.683-14.335 32.018-32.018 32.018-8.834 0-16.832-3.577-22.624-9.362z" />
<glyph unicode="&#xe94d;" glyph-name="arrow-down-left-square-fill" d="M128-64c-70.692 0-128 57.308-128 128v0 768c0 70.692 57.308 128 128 128v0h768c70.692 0 128-57.308 128-128v0-768c0-70.692-57.308-128-128-128v0h-768zM646.144 627.392l-262.144-262.144v177.152c0 17.673-14.327 32-32 32s-32-14.327-32-32v0-254.4c0-17.673 14.327-32 32-32v0h254.4c17.673 0 32 14.327 32 32s-14.327 32-32 32v0h-177.152l262.144 262.144c6.027 5.827 9.769 13.985 9.769 23.017 0 17.673-14.327 32-32 32-9.032 0-17.19-3.742-23.009-9.76l-0.009-0.009z" />
<glyph unicode="&#xe94e;" glyph-name="arrow-down-right" d="M896 96c0-17.673-14.327-32-32-32v0h-384c-17.673 0-32 14.327-32 32s14.327 32 32 32v0h306.752l-649.408 649.344c-5.798 5.798-9.384 13.808-9.384 22.656 0 17.695 14.345 32.040 32.040 32.040 8.848 0 16.858-3.586 22.656-9.384v0l649.344-649.408v306.752c0 17.673 14.327 32 32 32s32-14.327 32-32v0-384z" />
<glyph unicode="&#xe94f;" glyph-name="arrow-down-right-circle" d="M64 448c0-247.424 200.576-448 448-448s448 200.576 448 448v0c0 247.424-200.576 448-448 448s-448-200.576-448-448v0zM1024 448c0-282.77-229.23-512-512-512s-512 229.23-512 512v0c0 282.77 229.23 512 512 512s512-229.23 512-512v0zM374.656 630.656l262.144-262.208v177.152c0 17.673 14.327 32 32 32s32-14.327 32-32v-254.4c0-17.673-14.327-32-32-32h-254.4c-17.673 0-32 14.327-32 32s14.327 32 32 32h177.152l-262.208 262.144c-5.798 5.798-9.384 13.808-9.384 22.656 0 17.695 14.345 32.040 32.040 32.040 8.848 0 16.858-3.586 22.656-9.384z" />
<glyph unicode="&#xe950;" glyph-name="arrow-down-right-circle-fill" d="M0 448c0 282.77 229.23 512 512 512s512-229.23 512-512v0c0-282.77-229.23-512-512-512s-512 229.23-512 512v0zM377.856 627.392c-5.827 6.027-13.985 9.769-23.017 9.769-17.673 0-32-14.327-32-32 0-9.032 3.742-17.19 9.76-23.009l262.153-262.153h-177.152c-17.673 0-32-14.327-32-32s14.327-32 32-32v0h254.4c17.673 0 32 14.327 32 32v0 254.4c0 17.673-14.327 32-32 32s-32-14.327-32-32v0-177.152l-262.144 262.144z" />
<glyph unicode="&#xe951;" glyph-name="arrow-down-right-square" d="M960 832c0 35.346-28.654 64-64 64v0h-768c-35.346 0-64-28.654-64-64v0-768c0-35.346 28.654-64 64-64v0h768c35.346 0 64 28.654 64 64v0 768zM0 832c0 70.692 57.308 128 128 128v0h768c70.692 0 128-57.308 128-128v0-768c0-70.692-57.308-128-128-128v0h-768c-70.692 0-128 57.308-128 128v0 768zM374.656 630.656l262.144-262.208v177.152c0 17.673 14.327 32 32 32s32-14.327 32-32v-254.4c0-17.673-14.327-32-32-32h-254.4c-17.673 0-32 14.327-32 32s14.327 32 32 32h177.152l-262.208 262.144c-5.798 5.798-9.384 13.808-9.384 22.656 0 17.695 14.345 32.040 32.040 32.040 8.848 0 16.858-3.586 22.656-9.384z" />
<glyph unicode="&#xe952;" glyph-name="arrow-down-right-square-fill" d="M896-64c70.692 0 128 57.308 128 128v0 768c0 70.692-57.308 128-128 128v0h-768c-70.692 0-128-57.308-128-128v0-768c0-70.692 57.308-128 128-128v0h768zM377.856 627.392l262.144-262.144v177.152c0 17.673 14.327 32 32 32s32-14.327 32-32v0-254.4c0-17.673-14.327-32-32-32v0h-254.4c-17.673 0-32 14.327-32 32s14.327 32 32 32v0h177.152l-262.144 262.144c-5.558 5.749-8.983 13.59-8.983 22.231 0 17.673 14.327 32 32 32 8.641 0 16.482-3.425 22.24-8.991l-0.009 0.009z" />
<glyph unicode="&#xe953;" glyph-name="arrow-down-short" d="M512 704c17.673 0 32-14.327 32-32v0-370.752l137.344 137.408c5.798 5.798 13.808 9.384 22.656 9.384 17.695 0 32.040-14.345 32.040-32.040 0-8.848-3.586-16.858-9.384-22.656v0l-192-192c-5.794-5.808-13.805-9.401-22.656-9.401s-16.862 3.593-22.655 9.401l-192.001 192.001c-5.798 5.798-9.384 13.808-9.384 22.656 0 17.695 14.345 32.040 32.040 32.040 8.848 0 16.858-3.586 22.656-9.384v0l137.344-137.408v370.752c0 17.673 14.327 32 32 32v0z" />
<glyph unicode="&#xe954;" glyph-name="arrow-down-square" d="M960 832c0 35.346-28.654 64-64 64v0h-768c-35.346 0-64-28.654-64-64v0-768c0-35.346 28.654-64 64-64v0h768c35.346 0 64 28.654 64 64v0 768zM0 832c0 70.692 57.308 128 128 128v0h768c70.692 0 128-57.308 128-128v0-768c0-70.692-57.308-128-128-128v0h-768c-70.692 0-128 57.308-128 128v0 768zM544 672v-370.752l137.344 137.408c5.798 5.798 13.808 9.384 22.656 9.384 17.695 0 32.040-14.345 32.040-32.040 0-8.848-3.586-16.858-9.384-22.656l-192.001-192.001c-5.793-5.807-13.805-9.401-22.655-9.401s-16.862 3.593-22.656 9.401l-192 192c-5.798 5.798-9.384 13.808-9.384 22.656 0 17.695 14.345 32.040 32.040 32.040 8.848 0 16.858-3.586 22.656-9.384l137.344-137.408v370.752c0 17.673 14.327 32 32 32s32-14.327 32-32z" />
<glyph unicode="&#xe955;" glyph-name="arrow-down-square-fill" d="M128 960c-70.692 0-128-57.308-128-128v0-768c0-70.692 57.308-128 128-128v0h768c70.692 0 128 57.308 128 128v0 768c0 70.692-57.308 128-128 128v0h-768zM544 672v-370.752l137.344 137.408c5.798 5.798 13.808 9.384 22.656 9.384 17.695 0 32.040-14.345 32.040-32.040 0-8.848-3.586-16.858-9.384-22.656v0l-192-192c-5.794-5.808-13.805-9.401-22.656-9.401s-16.862 3.593-22.655 9.401l-192.001 192.001c-5.798 5.798-9.384 13.808-9.384 22.656 0 17.695 14.345 32.040 32.040 32.040 8.848 0 16.858-3.586 22.656-9.384v0l137.344-137.408v370.752c0 17.673 14.327 32 32 32s32-14.327 32-32v0z" />
<glyph unicode="&#xe956;" glyph-name="arrow-down-up" d="M736 0v0c-17.673 0-32 14.327-32 32v754.752l-201.344-201.408c-5.798-5.798-13.808-9.384-22.656-9.384-17.695 0-32.040 14.345-32.040 32.040 0 8.848 3.586 16.858 9.384 22.656l256.001 256.001c5.793 5.807 13.805 9.401 22.655 9.401s16.862-3.593 22.656-9.401l256-256c5.798-5.798 9.384-13.808 9.384-22.656 0-17.695-14.345-32.040-32.040-32.040-8.848 0-16.858 3.586-22.656 9.384l-201.344 201.408v-754.752c0-17.673-14.327-32-32-32zM288 896v0c-17.673 0-32-14.327-32-32v-754.752l-201.344 201.408c-5.798 5.798-13.808 9.384-22.656 9.384-17.695 0-32.040-14.345-32.040-32.040 0-8.848 3.586-16.858 9.384-22.656l256.001-256.001c5.793-5.807 13.805-9.401 22.655-9.401s16.862 3.593 22.656 9.401l256 256c5.798 5.798 9.384 13.808 9.384 22.656 0 17.695-14.345 32.040-32.040 32.040-8.848 0-16.858-3.586-22.656-9.384l-201.344-201.408v754.752c0 17.673-14.327 32-32 32z" />
<glyph unicode="&#xe957;" glyph-name="arrow-left" d="M960 448c0 17.673-14.327 32-32 32v0h-754.752l201.408 201.344c5.798 5.798 9.384 13.808 9.384 22.656 0 17.695-14.345 32.040-32.040 32.040-8.848 0-16.858-3.586-22.656-9.384v0l-256-256c-5.808-5.794-9.401-13.805-9.401-22.656s3.593-16.862 9.401-22.655l256.001-256.001c5.798-5.798 13.808-9.384 22.656-9.384 17.695 0 32.040 14.345 32.040 32.040 0 8.848-3.586 16.858-9.384 22.656v0l-201.408 201.344h754.752c17.673 0 32 14.327 32 32v0z" />
<glyph unicode="&#xe958;" glyph-name="arrow-left-circle" d="M64 448c0-247.424 200.576-448 448-448s448 200.576 448 448v0c0 247.424-200.576 448-448 448s-448-200.576-448-448v0zM1024 448c0-282.77-229.23-512-512-512s-512 229.23-512 512v0c0 282.77 229.23 512 512 512s512-229.23 512-512v0zM736 480h-370.752l137.408 137.344c5.798 5.798 9.384 13.808 9.384 22.656 0 17.695-14.345 32.040-32.040 32.040-8.848 0-16.858-3.586-22.656-9.384l-192.001-192.001c-5.807-5.793-9.401-13.805-9.401-22.655s3.593-16.862 9.401-22.656l192-192c5.798-5.798 13.808-9.384 22.656-9.384 17.695 0 32.040 14.345 32.040 32.040 0 8.848-3.586 16.858-9.384 22.656l-137.408 137.344h370.752c17.673 0 32 14.327 32 32s-14.327 32-32 32z" />
<glyph unicode="&#xe959;" glyph-name="arrow-left-circle-fill" d="M512 960c-282.77 0-512-229.23-512-512s229.23-512 512-512v0c282.77 0 512 229.23 512 512s-229.23 512-512 512v0zM736 480c17.673 0 32-14.327 32-32s-14.327-32-32-32v0h-370.752l137.408-137.344c5.798-5.798 9.384-13.808 9.384-22.656 0-17.695-14.345-32.040-32.040-32.040-8.848 0-16.858 3.586-22.656 9.384v0l-192 192c-5.808 5.794-9.401 13.805-9.401 22.656s3.593 16.862 9.401 22.655l192.001 192.001c5.798 5.798 13.808 9.384 22.656 9.384 17.695 0 32.040-14.345 32.040-32.040 0-8.848-3.586-16.858-9.384-22.656v0l-137.408-137.344h370.752z" />
<glyph unicode="&#xe95a;" glyph-name="arrow-left-right" d="M64 224v0c0 17.673 14.327 32 32 32h754.752l-201.408 201.344c-5.798 5.798-9.384 13.808-9.384 22.656 0 17.695 14.345 32.040 32.040 32.040 8.848 0 16.858-3.586 22.656-9.384l256.001-256.001c5.807-5.793 9.401-13.805 9.401-22.655s-3.593-16.862-9.401-22.656l-256-256c-5.798-5.798-13.808-9.384-22.656-9.384-17.695 0-32.040 14.345-32.040 32.040 0 8.848 3.586 16.858 9.384 22.656l201.408 201.344h-754.752c-17.673 0-32 14.327-32 32zM960 672v0c0 17.673-14.327 32-32 32h-754.752l201.408 201.344c5.798 5.798 9.384 13.808 9.384 22.656 0 17.695-14.345 32.040-32.040 32.040-8.848 0-16.858-3.586-22.656-9.384l-256.001-256.001c-5.807-5.793-9.401-13.805-9.401-22.655s3.593-16.862 9.401-22.656l256-256c5.798-5.798 13.808-9.384 22.656-9.384 17.695 0 32.040 14.345 32.040 32.040 0 8.848-3.586 16.858-9.384 22.656l-201.408 201.344h754.752c17.673 0 32 14.327 32 32z" />
<glyph unicode="&#xe95b;" glyph-name="arrow-left-short" d="M768 448c0-17.673-14.327-32-32-32v0h-370.752l137.408-137.344c5.798-5.798 9.384-13.808 9.384-22.656 0-17.695-14.345-32.040-32.040-32.040-8.848 0-16.858 3.586-22.656 9.384v0l-192 192c-5.808 5.794-9.401 13.805-9.401 22.656s3.593 16.862 9.401 22.655l192.001 192.001c5.798 5.798 13.808 9.384 22.656 9.384 17.695 0 32.040-14.345 32.040-32.040 0-8.848-3.586-16.858-9.384-22.656v0l-137.408-137.344h370.752c17.673 0 32-14.327 32-32v0z" />
<glyph unicode="&#xe95c;" glyph-name="arrow-left-square" d="M960 832c0 35.346-28.654 64-64 64v0h-768c-35.346 0-64-28.654-64-64v0-768c0-35.346 28.654-64 64-64v0h768c35.346 0 64 28.654 64 64v0 768zM0 832c0 70.692 57.308 128 128 128v0h768c70.692 0 128-57.308 128-128v0-768c0-70.692-57.308-128-128-128v0h-768c-70.692 0-128 57.308-128 128v0 768zM736 480h-370.752l137.408 137.344c5.798 5.798 9.384 13.808 9.384 22.656 0 17.695-14.345 32.040-32.040 32.040-8.848 0-16.858-3.586-22.656-9.384l-192.001-192.001c-5.807-5.793-9.401-13.805-9.401-22.655s3.593-16.862 9.401-22.656l192-192c5.798-5.798 13.808-9.384 22.656-9.384 17.695 0 32.040 14.345 32.040 32.040 0 8.848-3.586 16.858-9.384 22.656l-137.408 137.344h370.752c17.673 0 32 14.327 32 32s-14.327 32-32 32z" />
<glyph unicode="&#xe95d;" glyph-name="arrow-left-square-fill" d="M1024 64c0-70.692-57.308-128-128-128v0h-768c-70.692 0-128 57.308-128 128v0 768c0 70.692 57.308 128 128 128v0h768c70.692 0 128-57.308 128-128v0-768zM736 480h-370.752l137.408 137.344c5.798 5.798 9.384 13.808 9.384 22.656 0 17.695-14.345 32.040-32.040 32.040-8.848 0-16.858-3.586-22.656-9.384v0l-192-192c-5.808-5.794-9.401-13.805-9.401-22.656s3.593-16.862 9.401-22.655l192.001-192.001c5.798-5.798 13.808-9.384 22.656-9.384 17.695 0 32.040 14.345 32.040 32.040 0 8.848-3.586 16.858-9.384 22.656v0l-137.408 137.344h370.752c17.673 0 32 14.327 32 32s-14.327 32-32 32v0z" />
<glyph unicode="&#xe95e;" glyph-name="arrow-repeat" d="M738.176 512h251.648c8.834-0.003 15.994-7.166 15.994-16 0-3.907-1.4-7.487-3.726-10.265l0.020 0.025-125.824-151.040c-2.955-3.526-7.362-5.753-12.288-5.753s-9.333 2.226-12.268 5.728l-0.020 0.025-125.824 151.040c-2.306 2.753-3.706 6.333-3.706 10.24 0 8.834 7.16 15.997 15.994 16v0zM34.176 384h251.648c8.834 0.003 15.994 7.166 15.994 16 0 3.907-1.4 7.487-3.726 10.265l0.020-0.025-125.824 151.040c-2.955 3.526-7.362 5.753-12.288 5.753s-9.333-2.226-12.268-5.728l-0.020-0.025-125.824-151.040c-2.306-2.753-3.706-6.333-3.706-10.24 0-8.834 7.16-15.997 15.994-16v0zM512 768h0.002c154.083-0.019 282.732-108.897 313.598-256h65.088l-0.333 2.3c-31.522 180.419-188.936 317.559-378.381 317.559-118.908 0-225.197-54.029-296.167-139.507l0.030 0.034c-4.992-5.644-8.021-13.064-8.021-21.191 0-17.673 14.327-32 32-32 10.28 0 19.427 4.847 25.336 12.453 58.688 71.104 147.52 116.352 246.848 116.352zM198.4 384h-65.088l0.333-2.3c31.522-180.419 188.936-317.559 378.381-317.559 118.908 0 225.197 54.029 296.167 139.507l-0.030-0.034c4.992 5.644 8.021 13.064 8.021 21.191 0 17.673-14.327 32-32 32-10.28 0-19.427-4.847-25.336-12.453l-0.424-0.526c-58.721-70.713-147.303-115.742-246.402-115.742-154.071 0-282.721 108.841-313.622 255.916z" />
<glyph unicode="&#xe95f;" glyph-name="arrow-return-left" d="M928 864c17.673 0 32-14.327 32-32v0-307.2c0-88.366-71.634-160-160-160v0h-626.752l214.208-214.144c5.798-5.798 9.384-13.808 9.384-22.656 0-17.695-14.345-32.040-32.040-32.040-8.848 0-16.858 3.586-22.656 9.384v0l-268.8 268.8c-5.808 5.794-9.401 13.805-9.401 22.656s3.593 16.862 9.401 22.655l256.001 256.001c5.798 5.798 13.808 9.384 22.656 9.384 17.695 0 32.040-14.345 32.040-32.040 0-8.848-3.586-16.858-9.384-22.656v0l-201.408-201.344h626.752c53.019 0 96 42.981 96 96v307.2c0 17.673 14.327 32 32 32v0z" />
<glyph unicode="&#xe960;" glyph-name="arrow-return-right" d="M96 864c-17.673 0-32-14.327-32-32v0-307.2c0-88.366 71.634-160 160-160v0h626.752l-214.208-214.144c-5.798-5.798-9.384-13.808-9.384-22.656 0-17.695 14.345-32.040 32.040-32.040 8.848 0 16.858 3.586 22.656 9.384v0l268.8 268.8c5.808 5.794 9.401 13.805 9.401 22.656s-3.593 16.862-9.401 22.655l-256.001 256.001c-5.798 5.798-13.808 9.384-22.656 9.384-17.695 0-32.040-14.345-32.040-32.040 0-8.848 3.586-16.858 9.384-22.656v0l201.408-201.344h-626.752c-53.019 0-96 42.981-96 96v307.2c0 17.673-14.327 32-32 32v0z" />
<glyph unicode="&#xe961;" glyph-name="arrow-right" d="M64 448c0 17.673 14.327 32 32 32v0h754.752l-201.408 201.344c-5.798 5.798-9.384 13.808-9.384 22.656 0 17.695 14.345 32.040 32.040 32.040 8.848 0 16.858-3.586 22.656-9.384v0l256-256c5.808-5.794 9.401-13.805 9.401-22.656s-3.593-16.862-9.401-22.655l-256.001-256.001c-5.798-5.798-13.808-9.384-22.656-9.384-17.695 0-32.040 14.345-32.040 32.040 0 8.848 3.586 16.858 9.384 22.656v0l201.408 201.344h-754.752c-17.673 0-32 14.327-32 32v0z" />
<glyph unicode="&#xe962;" glyph-name="arrow-right-circle" d="M64 448c0-247.424 200.576-448 448-448s448 200.576 448 448v0c0 247.424-200.576 448-448 448s-448-200.576-448-448v0zM1024 448c0-282.77-229.23-512-512-512s-512 229.23-512 512v0c0 282.77 229.23 512 512 512s512-229.23 512-512v0zM288 480h370.752l-137.408 137.344c-5.798 5.798-9.384 13.808-9.384 22.656 0 17.695 14.345 32.040 32.040 32.040 8.848 0 16.858-3.586 22.656-9.384l192.001-192.001c5.807-5.793 9.401-13.805 9.401-22.655s-3.593-16.862-9.401-22.656l-192-192c-5.798-5.798-13.808-9.384-22.656-9.384-17.695 0-32.040 14.345-32.040 32.040 0 8.848 3.586 16.858 9.384 22.656l137.408 137.344h-370.752c-17.673 0-32 14.327-32 32s14.327 32 32 32z" />
<glyph unicode="&#xe963;" glyph-name="arrow-right-circle-fill" d="M512 960c282.77 0 512-229.23 512-512s-229.23-512-512-512v0c-282.77 0-512 229.23-512 512s229.23 512 512 512v0zM288 480c-17.673 0-32-14.327-32-32s14.327-32 32-32v0h370.752l-137.408-137.344c-5.798-5.798-9.384-13.808-9.384-22.656 0-17.695 14.345-32.040 32.040-32.040 8.848 0 16.858 3.586 22.656 9.384v0l192 192c5.808 5.794 9.401 13.805 9.401 22.656s-3.593 16.862-9.401 22.655l-192.001 192.001c-5.798 5.798-13.808 9.384-22.656 9.384-17.695 0-32.040-14.345-32.040-32.040 0-8.848 3.586-16.858 9.384-22.656v0l137.408-137.344h-370.752z" />
<glyph unicode="&#xe964;" glyph-name="arrow-right-short" d="M256 448c0 17.673 14.327 32 32 32v0h370.752l-137.408 137.344c-5.798 5.798-9.384 13.808-9.384 22.656 0 17.695 14.345 32.040 32.040 32.040 8.848 0 16.858-3.586 22.656-9.384v0l192-192c5.808-5.794 9.401-13.805 9.401-22.656s-3.593-16.862-9.401-22.655l-192.001-192.001c-5.798-5.798-13.808-9.384-22.656-9.384-17.695 0-32.040 14.345-32.040 32.040 0 8.848 3.586 16.858 9.384 22.656v0l137.408 137.344h-370.752c-17.673 0-32 14.327-32 32v0z" />
<glyph unicode="&#xe965;" glyph-name="arrow-right-square" d="M960 832c0 35.346-28.654 64-64 64v0h-768c-35.346 0-64-28.654-64-64v0-768c0-35.346 28.654-64 64-64v0h768c35.346 0 64 28.654 64 64v0 768zM0 832c0 70.692 57.308 128 128 128v0h768c70.692 0 128-57.308 128-128v0-768c0-70.692-57.308-128-128-128v0h-768c-70.692 0-128 57.308-128 128v0 768zM288 480h370.752l-137.408 137.344c-5.798 5.798-9.384 13.808-9.384 22.656 0 17.695 14.345 32.040 32.040 32.040 8.848 0 16.858-3.586 22.656-9.384l192.001-192.001c5.807-5.793 9.401-13.805 9.401-22.655s-3.593-16.862-9.401-22.656l-192-192c-5.798-5.798-13.808-9.384-22.656-9.384-17.695 0-32.040 14.345-32.040 32.040 0 8.848 3.586 16.858 9.384 22.656l137.408 137.344h-370.752c-17.673 0-32 14.327-32 32s14.327 32 32 32z" />
<glyph unicode="&#xe966;" glyph-name="arrow-right-square-fill" d="M0 64c0-70.692 57.308-128 128-128v0h768c70.692 0 128 57.308 128 128v0 768c0 70.692-57.308 128-128 128v0h-768c-70.692 0-128-57.308-128-128v0-768zM288 480h370.752l-137.408 137.344c-5.798 5.798-9.384 13.808-9.384 22.656 0 17.695 14.345 32.040 32.040 32.040 8.848 0 16.858-3.586 22.656-9.384v0l192-192c5.808-5.794 9.401-13.805 9.401-22.656s-3.593-16.862-9.401-22.655l-192.001-192.001c-5.798-5.798-13.808-9.384-22.656-9.384-17.695 0-32.040 14.345-32.040 32.040 0 8.848 3.586 16.858 9.384 22.656v0l137.408 137.344h-370.752c-17.673 0-32 14.327-32 32s14.327 32 32 32v0z" />
<glyph unicode="&#xe967;" glyph-name="arrows-angle-contract" d="M11.008-52.992v0c-5.789 5.791-9.369 13.789-9.369 22.624s3.58 16.833 9.369 22.624l262.144 262.144h-177.152c-17.673 0-32 14.327-32 32s14.327 32 32 32h254.4c17.673 0 32-14.327 32-32v-254.4c0-17.673-14.327-32-32-32s-32 14.327-32 32v177.152l-262.144-262.144c-5.791-5.789-13.789-9.369-22.624-9.369s-16.833 3.58-22.624 9.369zM1012.992 948.992v0c5.789-5.791 9.369-13.789 9.369-22.624s-3.58-16.833-9.369-22.624l-262.144-262.144h177.152c17.673 0 32-14.327 32-32s-14.327-32-32-32h-254.4c-17.673 0-32 14.327-32 32v254.4c0 17.673 14.327 32 32 32s32-14.327 32-32v-177.152l262.144 262.144c5.791 5.789 13.789 9.369 22.624 9.369s16.833-3.58 22.624-9.369z" />
<glyph unicode="&#xe968;" glyph-name="arrows-angle-expand" d="M372.992 308.992v0c5.789-5.791 9.369-13.789 9.369-22.624s-3.58-16.833-9.369-22.624l-262.144-262.144h177.152c17.673 0 32-14.327 32-32s-14.327-32-32-32h-254.4c-17.673 0-32 14.327-32 32v254.4c0 17.673 14.327 32 32 32s32-14.327 32-32v-177.152l262.144 262.144c5.791 5.789 13.789 9.369 22.624 9.369s16.833-3.58 22.624-9.369zM651.008 587.008v0c-5.789 5.791-9.369 13.789-9.369 22.624s3.58 16.833 9.369 22.624l262.144 262.144h-177.152c-17.673 0-32 14.327-32 32s14.327 32 32 32h254.4c17.673 0 32-14.327 32-32v-254.4c0-17.673-14.327-32-32-32s-32 14.327-32 32v177.152l-262.144-262.144c-5.791-5.789-13.789-9.369-22.624-9.369s-16.833 3.58-22.624 9.369z" />
<glyph unicode="&#xe969;" glyph-name="arrows-collapse" d="M64 448v0c0-17.673 14.327-32 32-32h832c17.673 0 32 14.327 32 32s-14.327 32-32 32h-832c-17.673 0-32-14.327-32-32zM512 960v0c-17.673 0-32-14.327-32-32v-242.752l-73.344 73.408c-5.798 5.798-13.808 9.384-22.656 9.384-17.695 0-32.040-14.345-32.040-32.040 0-8.848 3.586-16.858 9.384-22.656l128.001-128.001c5.793-5.807 13.805-9.401 22.655-9.401s16.862 3.593 22.656 9.401l128 128c5.798 5.798 9.384 13.808 9.384 22.656 0 17.695-14.345 32.040-32.040 32.040-8.848 0-16.858-3.586-22.656-9.384l-73.344-73.408v242.752c0 17.673-14.327 32-32 32zM480 210.752v-242.752c0-17.673 14.327-32 32-32s32 14.327 32 32v242.752l73.344-73.408c5.798-5.798 13.808-9.384 22.656-9.384 17.695 0 32.040 14.345 32.040 32.040 0 8.848-3.586 16.858-9.384 22.656l-128.001 128.001c-5.793 5.807-13.805 9.401-22.655 9.401s-16.862-3.593-22.656-9.401l-128-128c-5.798-5.798-9.384-13.808-9.384-22.656 0-17.695 14.345-32.040 32.040-32.040 8.848 0 16.858 3.586 22.656 9.384l73.344 73.408z" />
<glyph unicode="&#xe96a;" glyph-name="arrows-expand" d="M64 448v0c0-17.673 14.327-32 32-32h832c17.673 0 32 14.327 32 32s-14.327 32-32 32h-832c-17.673 0-32-14.327-32-32zM489.344 950.656l-128-128c-5.798-5.798-9.384-13.808-9.384-22.656 0-17.695 14.345-32.040 32.040-32.040 8.848 0 16.858 3.586 22.656 9.384l73.344 73.408v-242.752c0-17.673 14.327-32 32-32s32 14.327 32 32v242.752l73.344-73.408c5.798-5.798 13.808-9.384 22.656-9.384 17.695 0 32.040 14.345 32.040 32.040 0 8.848-3.586 16.858-9.384 22.656l-128.001 128.001c-5.793 5.807-13.805 9.401-22.655 9.401s-16.862-3.593-22.656-9.401zM512 320v0c-17.673 0-32-14.327-32-32v-242.752l-73.344 73.408c-5.798 5.798-13.808 9.384-22.656 9.384-17.695 0-32.040-14.345-32.040-32.040 0-8.848 3.586-16.858 9.384-22.656l128.001-128.001c5.793-5.807 13.805-9.401 22.655-9.401s16.862 3.593 22.656 9.401l128 128c5.798 5.798 9.384 13.808 9.384 22.656 0 17.695-14.345 32.040-32.040 32.040-8.848 0-16.858-3.586-22.656-9.384l-73.344-73.408v242.752c0 17.673-14.327 32-32 32z" />
<glyph unicode="&#xe96b;" glyph-name="arrows-fullscreen" d="M372.992 308.992v0c5.789-5.791 9.369-13.789 9.369-22.624s-3.58-16.833-9.369-22.624l-262.144-262.144h177.152c17.673 0 32-14.327 32-32s-14.327-32-32-32h-254.4c-17.673 0-32 14.327-32 32v254.4c0 17.673 14.327 32 32 32s32-14.327 32-32v-177.152l262.144 262.144c5.791 5.789 13.789 9.369 22.624 9.369s16.833-3.58 22.624-9.369zM651.008 308.992v0c-5.789-5.791-9.369-13.789-9.369-22.624s3.58-16.833 9.369-22.624l262.144-262.144h-177.152c-17.673 0-32-14.327-32-32s14.327-32 32-32h254.4c17.673 0 32 14.327 32 32v254.4c0 17.673-14.327 32-32 32s-32-14.327-32-32v-177.152l-262.144 262.144c-5.791 5.789-13.789 9.369-22.624 9.369s-16.833-3.58-22.624-9.369zM651.008 587.008v0c-5.789 5.791-9.369 13.789-9.369 22.624s3.58 16.833 9.369 22.624l262.144 262.144h-177.152c-17.673 0-32 14.327-32 32s14.327 32 32 32h254.4c17.673 0 32-14.327 32-32v-254.4c0-17.673-14.327-32-32-32s-32 14.327-32 32v177.152l-262.144-262.144c-5.791-5.789-13.789-9.369-22.624-9.369s-16.833 3.58-22.624 9.369zM372.992 587.008v0c5.789 5.791 9.369 13.789 9.369 22.624s-3.58 16.833-9.369 22.624l-262.144 262.144h177.152c17.673 0 32 14.327 32 32s-14.327 32-32 32h-254.4c-17.673 0-32-14.327-32-32v-254.4c0-17.673 14.327-32 32-32s32 14.327 32 32v177.152l262.144-262.144c5.791-5.789 13.789-9.369 22.624-9.369s16.833 3.58 22.624 9.369z" />
<glyph unicode="&#xe96c;" glyph-name="arrows-move" d="M489.344 950.656l-128-128c-5.798-5.798-9.384-13.808-9.384-22.656 0-17.695 14.345-32.040 32.040-32.040 8.848 0 16.858 3.586 22.656 9.384l73.344 73.408v-242.752c0-17.673 14.327-32 32-32s32 14.327 32 32v242.752l73.344-73.408c5.798-5.798 13.808-9.384 22.656-9.384 17.695 0 32.040 14.345 32.040 32.040 0 8.848-3.586 16.858-9.384 22.656l-128.001 128.001c-5.793 5.807-13.805 9.401-22.655 9.401s-16.862-3.593-22.656-9.401zM512 320v0c-17.673 0-32-14.327-32-32v-242.752l-73.344 73.408c-5.798 5.798-13.808 9.384-22.656 9.384-17.695 0-32.040-14.345-32.040-32.040 0-8.848 3.586-16.858 9.384-22.656l128.001-128.001c5.793-5.807 13.805-9.401 22.655-9.401s16.862 3.593 22.656 9.401l128 128c5.798 5.798 9.384 13.808 9.384 22.656 0 17.695-14.345 32.040-32.040 32.040-8.848 0-16.858-3.586-22.656-9.384l-73.344-73.408v242.752c0 17.673-14.327 32-32 32zM9.344 425.344l128-128c5.798-5.798 13.808-9.384 22.656-9.384 17.695 0 32.040 14.345 32.040 32.040 0 8.848-3.586 16.858-9.384 22.656l-73.408 73.344h242.752c17.673 0 32 14.327 32 32s-14.327 32-32 32h-242.752l73.408 73.344c5.798 5.798 9.384 13.808 9.384 22.656 0 17.695-14.345 32.040-32.040 32.040-8.848 0-16.858-3.586-22.656-9.384l-128.001-128.001c-5.807-5.793-9.401-13.805-9.401-22.655s3.593-16.862 9.401-22.656zM640 448v0c0-17.673 14.327-32 32-32h242.752l-73.408-73.344c-5.798-5.798-9.384-13.808-9.384-22.656 0-17.695 14.345-32.040 32.040-32.040 8.848 0 16.858 3.586 22.656 9.384l128.001 128.001c5.807 5.793 9.401 13.805 9.401 22.655s-3.593 16.862-9.401 22.656l-128 128c-5.798 5.798-13.808 9.384-22.656 9.384-17.695 0-32.040-14.345-32.040-32.040 0-8.848 3.586-16.858 9.384-22.656l73.408-73.344h-242.752c-17.673 0-32-14.327-32-32z" />
<glyph unicode="&#xe96d;" glyph-name="arrow-through-heart" d="M182.656-54.656c-5.794-5.808-13.805-9.401-22.656-9.401-17.673 0-32 14.327-32 32 0 0.020 0 0.040 0 0.060v-0.003 96h-96c-0.017 0-0.037 0-0.057 0-17.673 0-32 14.327-32 32 0 8.851 3.593 16.862 9.401 22.655l96.001 96.001c5.788 5.774 13.776 9.344 22.599 9.344 0.020 0 0.040 0 0.060 0h114.749l33.92 33.92c-49.344 51.328-84.992 101.12-109.056 148.48-51.072 100.8-49.6 191.744-13.632 261.888 65.28 127.552 241.536 175.936 358.016 84.8 80 62.72 188.416 59.392 269.568 9.728l69.12 69.184-73.28 73.344c-5.808 5.794-9.401 13.805-9.401 22.656 0 17.671 14.323 31.996 31.993 32h192c17.673 0 32-14.327 32-32v0-192c0-0.017 0-0.037 0-0.057 0-17.673-14.327-32-32-32-8.851 0-16.862 3.593-22.655 9.401l-73.345 73.409-64.384-64.384c15.104-15.872 28.16-33.984 38.4-54.080 35.968-70.144 37.44-161.088-13.632-261.888-50.752-100.032-153.28-210.432-326.72-325.12l-17.664-11.648-17.664 11.648c-64.494 42.297-120.59 85.723-173.080 133.069l1.24-1.101-34.496-34.56v-114.688c0-0.017 0-0.037 0-0.057 0-8.822-3.57-16.811-9.345-22.599l-95.999-95.999zM367.808 258.56c43.101-38.735 90.142-75.551 139.602-109.067l4.59-2.933c157.184 106.624 244.928 205.248 287.296 288.768 43.456 85.76 38.848 154.88 13.76 203.84-52.288 102.080-197.568 131.456-278.144 48.704l-22.912-23.552-22.912 23.552c-80.576 82.752-225.92 53.376-278.144-48.704-25.088-49.024-29.696-118.080 13.76-203.84 20.672-40.704 52.16-85.12 97.216-132.16l119.424 119.488c5.798 5.798 13.808 9.384 22.656 9.384 17.695 0 32.040-14.345 32.040-32.040 0-8.848-3.586-16.858-9.384-22.656v0l-118.848-118.784z" />
<glyph unicode="&#xe96e;" glyph-name="arrow-through-heart-fill" d="M182.656-54.656l95.999 95.999c5.774 5.789 9.345 13.777 9.345 22.599 0 0.020 0 0.040 0 0.057v114.752l198.656 198.592c5.798 5.798 9.384 13.808 9.384 22.656 0 17.695-14.345 32.040-32.040 32.040-8.848 0-16.858-3.586-22.656-9.384l-198.592-198.656h-114.749c-0.020 0-0.040 0-0.060 0-8.822 0-16.811-3.57-22.599-9.344l-96.001-96.001c-5.807-5.793-9.401-13.805-9.401-22.655 0-17.673 14.327-32 32-32 0.020 0 0.040 0 0.057 0h96v-95.997c0-0.020 0-0.040 0-0.060 0-17.673 14.327-32 32-32 8.851 0 16.862 3.593 22.656 9.401zM1024 736v192c0 17.673-14.327 32-32 32h-192c-17.67-0.004-31.993-14.329-31.993-32 0-8.851 3.593-16.862 9.401-22.656l73.28-73.344-69.12-69.184c-81.152 49.664-189.568 52.992-269.568-9.728-116.48 91.136-292.736 42.752-358.080-84.736-35.968-70.144-37.44-161.088 13.632-261.952l1.482-3.089c18.491-35.116 40.572-68.048 65.014-97.391l161.984 162.048c17.378 17.378 41.386 28.127 67.904 28.127 53.036 0 96.031-42.994 96.031-96.031 0-26.518-10.749-50.526-28.127-67.904l-160.64-160.832-2.754 2.178c38.568-31.467 78.706-61.085 125.89-92.226l17.664-11.648 17.664 11.648c173.44 114.688 275.968 225.088 326.72 325.12 51.072 100.8 49.6 191.744 13.632 261.888-10.24 20.096-23.296 38.208-38.4 54.080l64.384 64.384 73.345-73.409c5.793-5.807 13.805-9.401 22.655-9.401 17.673 0 32 14.327 32 32 0 0.020 0 0.040 0 0.057z" />
<glyph unicode="&#xe96f;" glyph-name="arrow-up" d="M512 0c17.673 0 32 14.327 32 32v0 754.752l201.344-201.408c5.798-5.798 13.808-9.384 22.656-9.384 17.695 0 32.040 14.345 32.040 32.040 0 8.848-3.586 16.858-9.384 22.656v0l-256 256c-5.794 5.808-13.805 9.401-22.656 9.401s-16.862-3.593-22.655-9.401l-256.001-256.001c-5.798-5.798-9.384-13.808-9.384-22.656 0-17.695 14.345-32.040 32.040-32.040 8.848 0 16.858 3.586 22.656 9.384v0l201.344 201.408v-754.752c0-17.673 14.327-32 32-32v0z" />
<glyph unicode="&#xe970;" glyph-name="arrow-up-circle" d="M64 448c0-247.424 200.576-448 448-448s448 200.576 448 448v0c0 247.424-200.576 448-448 448s-448-200.576-448-448v0zM1024 448c0-282.77-229.23-512-512-512s-512 229.23-512 512v0c0 282.77 229.23 512 512 512s512-229.23 512-512v0zM544 224v370.752l137.344-137.408c5.798-5.798 13.808-9.384 22.656-9.384 17.695 0 32.040 14.345 32.040 32.040 0 8.848-3.586 16.858-9.384 22.656l-192.001 192.001c-5.793 5.807-13.805 9.401-22.655 9.401s-16.862-3.593-22.656-9.401l-192-192c-5.798-5.798-9.384-13.808-9.384-22.656 0-17.695 14.345-32.040 32.040-32.040 8.848 0 16.858 3.586 22.656 9.384l137.344 137.408v-370.752c0-17.673 14.327-32 32-32s32 14.327 32 32z" />
<glyph unicode="&#xe971;" glyph-name="arrow-up-circle-fill" d="M1024 448c0 282.77-229.23 512-512 512s-512-229.23-512-512v0c0-282.77 229.23-512 512-512s512 229.23 512 512v0zM544 224c0-17.673-14.327-32-32-32s-32 14.327-32 32v0 370.752l-137.344-137.408c-5.798-5.798-13.808-9.384-22.656-9.384-17.695 0-32.040 14.345-32.040 32.040 0 8.848 3.586 16.858 9.384 22.656v0l192 192c5.794 5.808 13.805 9.401 22.656 9.401s16.862-3.593 22.655-9.401l192.001-192.001c5.798-5.798 9.384-13.808 9.384-22.656 0-17.695-14.345-32.040-32.040-32.040-8.848 0-16.858 3.586-22.656 9.384v0l-137.344 137.408v-370.752z" />
<glyph unicode="&#xe972;" glyph-name="arrow-up-left" d="M128 800c0 17.673 14.327 32 32 32v0h384c17.673 0 32-14.327 32-32s-14.327-32-32-32v0h-306.752l649.408-649.344c5.798-5.798 9.384-13.808 9.384-22.656 0-17.695-14.345-32.040-32.040-32.040-8.848 0-16.858 3.586-22.656 9.384v0l-649.344 649.408v-306.752c0-17.673-14.327-32-32-32s-32 14.327-32 32v0 384z" />
<glyph unicode="&#xe973;" glyph-name="arrow-up-left-circle" d="M64 448c0-247.424 200.576-448 448-448s448 200.576 448 448v0c0 247.424-200.576 448-448 448s-448-200.576-448-448v0zM1024 448c0-282.77-229.23-512-512-512s-512 229.23-512 512v0c0 282.77 229.23 512 512 512s512-229.23 512-512v0zM646.144 268.608l-262.144 262.144v-177.152c0-17.673-14.327-32-32-32s-32 14.327-32 32v254.4c0 17.673 14.327 32 32 32h254.4c17.673 0 32-14.327 32-32s-14.327-32-32-32h-177.152l262.153-262.153c6.018-5.818 9.76-13.976 9.76-23.009 0-17.673-14.327-32-32-32-9.032 0-17.19 3.742-23.017 9.769z" />
<glyph unicode="&#xe974;" glyph-name="arrow-up-left-circle-fill" d="M1024 448c0-282.77-229.23-512-512-512s-512 229.23-512 512v0c0 282.77 229.23 512 512 512s512-229.23 512-512v0zM646.144 268.608c5.827-6.027 13.985-9.769 23.017-9.769 17.673 0 32 14.327 32 32 0 9.032-3.742 17.19-9.76 23.009l-262.153 262.153h177.152c17.673 0 32 14.327 32 32s-14.327 32-32 32v0h-254.4c-17.673 0-32-14.327-32-32v0-254.4c0-17.673 14.327-32 32-32s32 14.327 32 32v0 177.152l262.144-262.144z" />
<glyph unicode="&#xe975;" glyph-name="arrow-up-left-square" d="M960 832c0 35.346-28.654 64-64 64v0h-768c-35.346 0-64-28.654-64-64v0-768c0-35.346 28.654-64 64-64v0h768c35.346 0 64 28.654 64 64v0 768zM0 832c0 70.692 57.308 128 128 128v0h768c70.692 0 128-57.308 128-128v0-768c0-70.692-57.308-128-128-128v0h-768c-70.692 0-128 57.308-128 128v0 768zM646.144 268.608l-262.144 262.144v-177.152c0-17.673-14.327-32-32-32s-32 14.327-32 32v254.4c0 17.673 14.327 32 32 32h254.4c17.673 0 32-14.327 32-32s-14.327-32-32-32h-177.152l262.153-262.153c6.018-5.818 9.76-13.976 9.76-23.009 0-17.673-14.327-32-32-32-9.032 0-17.19 3.742-23.017 9.769z" />
<glyph unicode="&#xe976;" glyph-name="arrow-up-left-square-fill" d="M128 960c-70.692 0-128-57.308-128-128v0-768c0-70.692 57.308-128 128-128v0h768c70.692 0 128 57.308 128 128v0 768c0 70.692-57.308 128-128 128v0h-768zM646.144 268.608l-262.144 262.144v-177.152c0-17.673-14.327-32-32-32s-32 14.327-32 32v0 254.4c0 17.673 14.327 32 32 32v0h254.4c17.673 0 32-14.327 32-32s-14.327-32-32-32v0h-177.152l262.144-262.144c6.027-5.827 9.769-13.985 9.769-23.017 0-17.673-14.327-32-32-32-9.032 0-17.19 3.742-23.009 9.76l-0.009 0.009z" />
<glyph unicode="&#xe977;" glyph-name="arrow-up-right" d="M896 800c0 17.673-14.327 32-32 32v0h-384c-17.673 0-32-14.327-32-32s14.327-32 32-32v0h306.752l-649.408-649.344c-5.798-5.798-9.384-13.808-9.384-22.656 0-17.695 14.345-32.040 32.040-32.040 8.848 0 16.858 3.586 22.656 9.384v0l649.344 649.408v-306.752c0-17.673 14.327-32 32-32s32 14.327 32 32v0 384z" />
<glyph unicode="&#xe978;" glyph-name="arrow-up-right-circle" d="M64 448c0-247.424 200.576-448 448-448s448 200.576 448 448v0c0 247.424-200.576 448-448 448s-448-200.576-448-448v0zM1024 448c0-282.77-229.23-512-512-512s-512 229.23-512 512v0c0 282.77 229.23 512 512 512s512-229.23 512-512v0zM374.656 268.608l262.144 262.144v-177.152c0-17.673 14.327-32 32-32s32 14.327 32 32v254.4c0 17.673-14.327 32-32 32h-254.4c-17.673 0-32-14.327-32-32s14.327-32 32-32h177.152l-262.208-262.144c-5.785-5.793-9.362-13.791-9.362-22.624 0-17.683 14.335-32.018 32.018-32.018 8.849 0 16.86 3.59 22.656 9.394z" />
<glyph unicode="&#xe979;" glyph-name="arrow-up-right-circle-fill" d="M0 448c0-282.77 229.23-512 512-512s512 229.23 512 512v0c0 282.77-229.23 512-512 512s-512-229.23-512-512v0zM377.856 268.608c-5.827-6.027-13.985-9.769-23.017-9.769-17.673 0-32 14.327-32 32 0 9.032 3.742 17.19 9.76 23.009l262.153 262.153h-177.152c-17.673 0-32 14.327-32 32s14.327 32 32 32v0h254.4c17.673 0 32-14.327 32-32v0-254.4c0-17.673-14.327-32-32-32s-32 14.327-32 32v0 177.152l-262.144-262.144z" />
<glyph unicode="&#xe97a;" glyph-name="arrow-up-right-square" d="M960 832c0 35.346-28.654 64-64 64v0h-768c-35.346 0-64-28.654-64-64v0-768c0-35.346 28.654-64 64-64v0h768c35.346 0 64 28.654 64 64v0 768zM0 832c0 70.692 57.308 128 128 128v0h768c70.692 0 128-57.308 128-128v0-768c0-70.692-57.308-128-128-128v0h-768c-70.692 0-128 57.308-128 128v0 768zM374.656 268.608l262.144 262.144v-177.152c0-17.673 14.327-32 32-32s32 14.327 32 32v254.4c0 17.673-14.327 32-32 32h-254.4c-17.673 0-32-14.327-32-32s14.327-32 32-32h177.152l-262.208-262.144c-5.785-5.793-9.362-13.791-9.362-22.624 0-17.683 14.335-32.018 32.018-32.018 8.849 0 16.86 3.59 22.656 9.394z" />
<glyph unicode="&#xe97b;" glyph-name="arrow-up-right-square-fill" d="M896 960c70.692 0 128-57.308 128-128v0-768c0-70.692-57.308-128-128-128v0h-768c-70.692 0-128 57.308-128 128v0 768c0 70.692 57.308 128 128 128v0h768zM377.856 268.608l262.144 262.144v-177.152c0-17.673 14.327-32 32-32s32 14.327 32 32v0 254.4c0 17.673-14.327 32-32 32v0h-254.4c-17.673 0-32-14.327-32-32s14.327-32 32-32v0h177.152l-262.144-262.144c-5.558-5.749-8.983-13.59-8.983-22.231 0-17.673 14.327-32 32-32 8.641 0 16.482 3.425 22.24 8.991l-0.009-0.009z" />
<glyph unicode="&#xe97c;" glyph-name="arrow-up-short" d="M512 192c17.673 0 32 14.327 32 32v0 370.752l137.344-137.408c5.798-5.798 13.808-9.384 22.656-9.384 17.695 0 32.040 14.345 32.040 32.040 0 8.848-3.586 16.858-9.384 22.656v0l-192 192c-5.794 5.808-13.805 9.401-22.656 9.401s-16.862-3.593-22.655-9.401l-192.001-192.001c-5.798-5.798-9.384-13.808-9.384-22.656 0-17.695 14.345-32.040 32.040-32.040 8.848 0 16.858 3.586 22.656 9.384v0l137.344 137.408v-370.752c0-17.673 14.327-32 32-32v0z" />
<glyph unicode="&#xe97d;" glyph-name="arrow-up-square" d="M960 832c0 35.346-28.654 64-64 64v0h-768c-35.346 0-64-28.654-64-64v0-768c0-35.346 28.654-64 64-64v0h768c35.346 0 64 28.654 64 64v0 768zM0 832c0 70.692 57.308 128 128 128v0h768c70.692 0 128-57.308 128-128v0-768c0-70.692-57.308-128-128-128v0h-768c-70.692 0-128 57.308-128 128v0 768zM544 224v370.752l137.344-137.408c5.798-5.798 13.808-9.384 22.656-9.384 17.695 0 32.040 14.345 32.040 32.040 0 8.848-3.586 16.858-9.384 22.656l-192.001 192.001c-5.793 5.807-13.805 9.401-22.655 9.401s-16.862-3.593-22.656-9.401l-192-192c-5.798-5.798-9.384-13.808-9.384-22.656 0-17.695 14.345-32.040 32.040-32.040 8.848 0 16.858 3.586 22.656 9.384l137.344 137.408v-370.752c0-17.673 14.327-32 32-32s32 14.327 32 32z" />
<glyph unicode="&#xe97e;" glyph-name="arrow-up-square-fill" d="M128-64c-70.692 0-128 57.308-128 128v0 768c0 70.692 57.308 128 128 128v0h768c70.692 0 128-57.308 128-128v0-768c0-70.692-57.308-128-128-128v0h-768zM544 224v370.752l137.344-137.408c5.798-5.798 13.808-9.384 22.656-9.384 17.695 0 32.040 14.345 32.040 32.040 0 8.848-3.586 16.858-9.384 22.656v0l-192 192c-5.794 5.808-13.805 9.401-22.656 9.401s-16.862-3.593-22.655-9.401l-192.001-192.001c-5.798-5.798-9.384-13.808-9.384-22.656 0-17.695 14.345-32.040 32.040-32.040 8.848 0 16.858 3.586 22.656 9.384v0l137.344 137.408v-370.752c0-17.673 14.327-32 32-32s32 14.327 32 32v0z" />
<glyph unicode="&#xe97f;" glyph-name="aspect-ratio" d="M0 736c0 53.019 42.981 96 96 96v0h832c53.019 0 96-42.981 96-96v0-576c0-53.019-42.981-96-96-96v0h-832c-53.019 0-96 42.981-96 96v0 576zM96 768c-17.673 0-32-14.327-32-32v0-576c0-17.673 14.327-32 32-32v0h832c17.673 0 32 14.327 32 32v0 576c0 17.673-14.327 32-32 32v0h-832zM128 672c0 17.673 14.327 32 32 32v0h192c17.673 0 32-14.327 32-32s-14.327-32-32-32v0h-160v-160c0-17.673-14.327-32-32-32s-32 14.327-32 32v0 192zM896 224c0-17.673-14.327-32-32-32v0h-192c-17.673 0-32 14.327-32 32s14.327 32 32 32v0h160v160c0 17.673 14.327 32 32 32s32-14.327 32-32v0-192z" />
<glyph unicode="&#xe980;" glyph-name="aspect-ratio-fill" d="M0 160v576c0 53.019 42.981 96 96 96v0h832c53.019 0 96-42.981 96-96v0-576c0-53.019-42.981-96-96-96v0h-832c-53.019 0-96 42.981-96 96v0zM160 704c-17.673 0-32-14.327-32-32v0-192c0-17.673 14.327-32 32-32s32 14.327 32 32v0 160h160c17.673 0 32 14.327 32 32s-14.327 32-32 32v0h-192zM864 192c17.673 0 32 14.327 32 32v0 192c0 17.673-14.327 32-32 32s-32-14.327-32-32v0-160h-160c-17.673 0-32-14.327-32-32s14.327-32 32-32v0h192z" />
<glyph unicode="&#xe981;" glyph-name="asterisk" d="M512 960c35.346 0 64-28.654 64-64v0-337.152l291.968 168.576c9.267 5.523 20.436 8.788 32.368 8.788 35.346 0 64-28.654 64-64 0-23.713-12.897-44.414-32.058-55.472l-0.309-0.165-291.968-168.576 291.968-168.576c19.471-11.222 32.368-31.923 32.368-55.636 0-35.346-28.654-64-64-64-11.932 0-23.101 3.265-32.662 8.951l0.295-0.162-291.968 168.576v-337.152c0-35.346-28.654-64-64-64s-64 28.654-64 64v0 337.152l-291.968-168.576c-9.267-5.523-20.436-8.788-32.368-8.788-35.346 0-64 28.654-64 64 0 23.713 12.897 44.414 32.058 55.472l0.309 0.165 291.968 168.576-291.968 168.576c-19.058 11.319-31.632 31.797-31.632 55.212 0 35.346 28.654 64 64 64 11.633 0 22.541-3.104 31.942-8.528l-0.309 0.165 291.968-168.576v337.152c0 35.346 28.654 64 64 64v0z" />
<glyph unicode="&#xe982;" glyph-name="at" d="M838.784 497.792c0 189.888-143.936 322.048-350.848 322.048-214.4 0-361.344-148.352-361.344-364.928 0-223.552 143.040-365.312 368.768-365.312 55.168 0 108.096 7.872 147.456 21.44v55.168c-27.52-12.736-86.656-20.992-146.56-20.992-187.264 0-308.032 120.32-308.032 307.072 0 182.016 122.944 312.384 294.016 312.384 175.040 0 294.912-108.032 294.912-265.984 0-107.648-35.456-177.216-90.624-177.216-31.488 0-49.408 17.92-49.408 48.64v256.704h-66.048v-53.376h-7.040c-17.024 38.080-56.384 61.696-102.4 61.696-89.6 0-152.192-74.368-152.192-180.672 0-111.168 61.248-185.984 152.256-185.984 51.2 0 90.56 24.96 109.376 69.568h7.040c5.184-42.88 44.992-73.472 96.192-73.472 100.608 0 164.48 90.56 164.48 233.152zM379.456 452.736c0 76.608 34.56 122.048 93.184 122.048 59.52 0 97.536-47.232 97.536-122.048s-38.464-122.496-98.432-122.496c-57.28 0-92.288 46.4-92.288 122.496z" />
<glyph unicode="&#xe983;" glyph-name="award" d="M618.816 904.704l-106.816 55.296-106.816-55.296-118.912-18.048-53.888-107.52-85.568-84.48 19.584-118.656-19.584-118.656 85.568-84.48 53.888-107.52 118.912-18.048 106.816-55.296 106.816 55.296 118.912 18.048 53.888 107.52 85.568 84.48-19.584 118.656 19.584 118.656-85.568 84.48-53.888 107.52-118.912 18.048zM695.36 828.352l43.776-87.36 69.504-68.608-15.872-96.384 15.872-96.384-69.504-68.608-43.776-87.36-96.64-14.656-86.72-44.928-86.72 44.928-96.64 14.656-43.776 87.36-69.504 68.608 15.936 96.384-16 96.384 69.568 68.608 43.776 87.36 96.64 14.656 86.72 44.928 86.784-44.928 96.576-14.656zM256 205.184v-269.184l256 64 256-64v269.184l-129.152-19.584-126.848-65.664-126.848 65.664-129.152 19.584z" />
<glyph unicode="&#xe984;" glyph-name="award-fill" d="M512 960l106.816-55.296 118.912-18.048 53.888-107.52 85.568-84.48-19.584-118.656 19.584-118.656-85.568-84.48-53.888-107.52-118.912-18.048-106.816-55.296-106.816 55.296-118.912 18.048-53.888 107.52-85.568 84.48 19.584 118.656-19.584 118.656 85.568 84.48 53.888 107.52 118.912 18.048 106.816 55.296zM256 205.184v-269.184l256 64 256-64v269.184l-129.152-19.584-126.848-65.664-126.848 65.664-129.152 19.584z" />
<glyph unicode="&#xe985;" glyph-name="back" d="M0 832c0 70.692 57.308 128 128 128v0h512c70.692 0 128-57.308 128-128v0-128h128c70.692 0 128-57.308 128-128v0-512c0-70.692-57.308-128-128-128v0h-512c-70.692 0-128 57.308-128 128v0 128h-128c-70.692 0-128 57.308-128 128v0 512zM128 896c-35.346 0-64-28.654-64-64v0-512c0-35.346 28.654-64 64-64v0h512c35.346 0 64 28.654 64 64v0 512c0 35.346-28.654 64-64 64v0h-512z" />
<glyph unicode="&#xe986;" glyph-name="backspace" d="M373.12 630.656c-5.808-5.794-9.401-13.805-9.401-22.656s3.593-16.862 9.401-22.655l137.281-137.345-137.408-137.344c-5.804-5.796-9.394-13.807-9.394-22.656 0-17.683 14.335-32.018 32.018-32.018 8.834 0 16.832 3.577 22.624 9.362v0l137.408 137.408 137.344-137.408c5.792-5.785 13.79-9.362 22.624-9.362 17.683 0 32.018 14.335 32.018 32.018 0 8.849-3.59 16.86-9.393 22.656v0l-137.28 137.344 137.344 137.344c5.804 5.796 9.394 13.807 9.394 22.656 0 17.683-14.335 32.018-32.018 32.018-8.834 0-16.832-3.577-22.624-9.362v0l-137.344-137.408-137.408 137.408c-5.791 5.789-13.789 9.369-22.624 9.369s-16.833-3.58-22.624-9.369v0zM875.712 896c70.692 0 128-57.308 128-128v0-640c0-70.692-57.308-128-128-128v0h-453.12c-0.016 0-0.035 0-0.054 0-38.789 0-73.548 17.254-97.021 44.505l-0.14 0.167-309.952 361.728c-9.583 11.124-15.419 25.712-15.419 41.664s5.836 30.541 15.489 41.748l-0.070-0.084 309.952 361.472c23.606 27.48 58.388 44.783 97.213 44.8h453.123zM422.592 832c-0.001 0-0.003 0-0.004 0-19.424 0-36.827-8.653-48.564-22.315l-0.071-0.085-309.952-361.6 310.016-361.6c11.796-13.732 29.174-22.381 48.573-22.4h453.123c35.346 0 64 28.654 64 64v0 640c0 35.346-28.654 64-64 64v0h-453.12z" />
<glyph unicode="&#xe987;" glyph-name="backspace-fill" d="M1003.712 768c0 70.692-57.308 128-128 128v0h-453.12c-0.016 0-0.035 0-0.054 0-38.789 0-73.548-17.254-97.021-44.505l-0.14-0.167-309.952-361.728c-9.583-11.124-15.419-25.712-15.419-41.664s5.836-30.541 15.489-41.748l-0.070 0.084 309.952-361.6c23.614-27.418 58.373-44.672 97.162-44.672 0.019 0 0.038 0 0.057 0h453.117c70.692 0 128 57.308 128 128v0 640zM373.056 585.344c-5.804 5.796-9.394 13.807-9.394 22.656 0 17.683 14.335 32.018 32.018 32.018 8.834 0 16.832-3.577 22.624-9.362v0l137.408-137.408 137.344 137.408c5.792 5.785 13.79 9.362 22.624 9.362 17.683 0 32.018-14.335 32.018-32.018 0-8.849-3.59-16.86-9.393-22.656v0l-137.344-137.344 137.344-137.344c5.804-5.796 9.394-13.807 9.394-22.656 0-17.683-14.335-32.018-32.018-32.018-8.834 0-16.832 3.577-22.624 9.362v0l-137.344 137.408-137.408-137.408c-5.792-5.785-13.79-9.362-22.624-9.362-17.683 0-32.018 14.335-32.018 32.018 0 8.849 3.59 16.86 9.393 22.656v0l137.408 137.344-137.408 137.344z" />
<glyph unicode="&#xe988;" glyph-name="backspace-reverse" d="M630.656 630.656c5.808-5.794 9.401-13.805 9.401-22.656s-3.593-16.862-9.401-22.655l-137.409-137.345 137.408-137.344c5.798-5.798 9.384-13.808 9.384-22.656 0-17.695-14.345-32.040-32.040-32.040-8.848 0-16.858 3.586-22.656 9.384v0l-137.344 137.408-137.344-137.408c-5.798-5.798-13.808-9.384-22.656-9.384-17.695 0-32.040 14.345-32.040 32.040 0 8.848 3.586 16.858 9.384 22.656v0l137.408 137.344-137.408 137.344c-5.798 5.798-9.384 13.808-9.384 22.656 0 17.695 14.345 32.040 32.040 32.040 8.848 0 16.858-3.586 22.656-9.384v0l137.344-137.408 137.344 137.408c5.794 5.808 13.805 9.401 22.656 9.401s16.862-3.593 22.655-9.401l0.001-0.001zM128 896c-70.692 0-128-57.308-128-128v0-640c0-70.692 57.308-128 128-128v0h453.12c0.016 0 0.035 0 0.054 0 38.789 0 73.548 17.254 97.021 44.505l0.14 0.167 309.952 361.664c9.583 11.124 15.419 25.712 15.419 41.664s-5.836 30.541-15.489 41.748l0.070-0.084-309.888 361.536c-23.617 27.494-58.423 44.8-97.272 44.8-0.003 0-0.006 0-0.009 0h-453.119zM581.12 832c0.001 0 0.003 0 0.004 0 19.424 0 36.827-8.653 48.564-22.315l0.071-0.085 309.888-361.6-310.016-361.6c-11.796-13.732-29.174-22.381-48.573-22.4h-453.059c-35.346 0-64 28.654-64 64v0 640c0 35.346 28.654 64 64 64v0h453.12z" />
<glyph unicode="&#xe989;" glyph-name="backspace-reverse-fill" d="M0 768c0 70.692 57.308 128 128 128v0h453.12c0.016 0 0.035 0 0.054 0 38.789 0 73.548-17.254 97.021-44.505l0.14-0.167 309.952-361.664c9.583-11.124 15.419-25.712 15.419-41.664s-5.836-30.541-15.489-41.748l0.070 0.084-309.888-361.536c-23.617-27.494-58.423-44.8-97.272-44.8-0.003 0-0.006 0-0.009 0h-453.119c-70.692 0-128 57.308-128 128v0 640zM630.656 585.344c5.798 5.798 9.384 13.808 9.384 22.656 0 17.695-14.345 32.040-32.040 32.040-8.848 0-16.858-3.586-22.656-9.384v0l-137.344-137.408-137.344 137.408c-5.798 5.798-13.808 9.384-22.656 9.384-17.695 0-32.040-14.345-32.040-32.040 0-8.848 3.586-16.858 9.384-22.656v0l137.408-137.344-137.408-137.344c-5.798-5.798-9.384-13.808-9.384-22.656 0-17.695 14.345-32.040 32.040-32.040 8.848 0 16.858 3.586 22.656 9.384v0l137.344 137.408 137.344-137.408c5.798-5.798 13.808-9.384 22.656-9.384 17.695 0 32.040 14.345 32.040 32.040 0 8.848-3.586 16.858-9.384 22.656v0l-137.408 137.344 137.408 137.344z" />
<glyph unicode="&#xe98a;" glyph-name="badge-3d" d="M289.28 424.448h42.496c41.344 0 67.52-24.192 67.84-57.6 0.512-34.368-27.328-58.816-69.504-58.816-38.272 0.256-66.368 20.8-68.352 48.384h-69.76c1.92-58.496 50.624-108.032 137.792-108.032 79.36 0 146.24 42.24 145.408 115.072-0.832 60.992-47.808 88.32-82.688 91.648v3.968c28.16 4.48 72 33.728 70.912 88-0.832 57.984-51.2 100.48-131.392 100.16-83.84-0.32-130.752-46.976-132.736-106.88h70.592c1.408 25.024 24.512 48.064 59.904 48.064 34.048 0 59.392-21.12 59.392-52.032 0.256-30.656-24.512-53.44-59.392-53.44h-40.448v-58.496zM520.064 639.936v-383.936h140.096c115.84 0 171.84 70.848 171.84 192.96 0 121.216-55.104 190.976-171.84 190.976h-140.096zM596.032 578.048h54.016c71.168 0 103.744-43.904 103.744-130.56 0-86.592-32.32-129.28-103.744-129.28h-54.016v259.84zM896 768c35.346 0 64-28.654 64-64v0-512c0-35.346-28.654-64-64-64v0h-768c-35.346 0-64 28.654-64 64v0 512c0 35.346 28.654 64 64 64v0h768zM128 832c-70.692 0-128-57.308-128-128v0-512c0-70.692 57.308-128 128-128v0h768c70.692 0 128 57.308 128 128v0 512c0 70.692-57.308 128-128 128v0h-768z" />
</font>
</defs>
</svg>
